  0
SECTION
  2
HEADER
  9
$ACADVER
  1
AC1015
  9
$ACADMAINTVER
 70
     6
  9
$DWGCODEPAGE
  3
ANSI_1252
  9
$INSBASE
 10
0.0
 20
0.0
 30
0.0
  9
$EXTMIN
 10
19.99999999999996
 20
19.9999999999999
 30
0.0
  9
$EXTMAX
 10
574.0
 20
420.0
 30
0.0
  9
$LIMMIN
 10
0.0
 20
0.0
  9
$LIMMAX
 10
12.0
 20
9.0
  9
$ORTHOMODE
 70
     0
  9
$REGENMODE
 70
     1
  9
$FILLMODE
 70
     1
  9
$QTEXTMODE
 70
     0
  9
$MIRRTEXT
 70
     1
  9
$LTSCALE
 40
1.0
  9
$ATTMODE
 70
     1
  9
$TEXTSIZE
 40
0.2
  9
$TRACEWID
 40
0.05
  9
$TEXTSTYLE
  7
Standard
  9
$CLAYER
  8
0
  9
$CELTYPE
  6
ByLayer
  9
$CECOLOR
 62
   256
  9
$CELTSCALE
 40
1.0
  9
$DISPSILH
 70
     0
  9
$DIMSCALE
 40
1.0
  9
$DIMASZ
 40
0.18
  9
$DIMEXO
 40
0.0625
  9
$DIMDLI
 40
0.38
  9
$DIMRND
 40
0.0
  9
$DIMDLE
 40
0.0
  9
$DIMEXE
 40
0.18
  9
$DIMTP
 40
0.0
  9
$DIMTM
 40
0.0
  9
$DIMTXT
 40
0.18
  9
$DIMCEN
 40
0.09
  9
$DIMTSZ
 40
0.0
  9
$DIMTOL
 70
     0
  9
$DIMLIM
 70
     0
  9
$DIMTIH
 70
     1
  9
$DIMTOH
 70
     1
  9
$DIMSE1
 70
     0
  9
$DIMSE2
 70
     0
  9
$DIMTAD
 70
     0
  9
$DIMZIN
 70
     0
  9
$DIMBLK
  1

  9
$DIMASO
 70
     1
  9
$DIMSHO
 70
     1
  9
$DIMPOST
  1

  9
$DIMAPOST
  1

  9
$DIMALT
 70
     0
  9
$DIMALTD
 70
     2
  9
$DIMALTF
 40
25.4
  9
$DIMLFAC
 40
1.0
  9
$DIMTOFL
 70
     0
  9
$DIMTVP
 40
0.0
  9
$DIMTIX
 70
     0
  9
$DIMSOXD
 70
     0
  9
$DIMSAH
 70
     0
  9
$DIMBLK1
  1

  9
$DIMBLK2
  1

  9
$DIMSTYLE
  2
Standard
  9
$DIMCLRD
 70
     0
  9
$DIMCLRE
 70
     0
  9
$DIMCLRT
 70
     0
  9
$DIMTFAC
 40
1.0
  9
$DIMGAP
 40
0.09
  9
$DIMJUST
 70
     0
  9
$DIMSD1
 70
     0
  9
$DIMSD2
 70
     0
  9
$DIMTOLJ
 70
     1
  9
$DIMTZIN
 70
     0
  9
$DIMALTZ
 70
     0
  9
$DIMALTTZ
 70
     0
  9
$DIMUPT
 70
     0
  9
$DIMDEC
 70
     4
  9
$DIMTDEC
 70
     4
  9
$DIMALTU
 70
     2
  9
$DIMALTTD
 70
     2
  9
$DIMTXSTY
  7
Standard
  9
$DIMAUNIT
 70
     0
  9
$DIMADEC
 70
     0
  9
$DIMALTRND
 40
0.0
  9
$DIMAZIN
 70
     0
  9
$DIMDSEP
 70
    46
  9
$DIMATFIT
 70
     3
  9
$DIMFRAC
 70
     0
  9
$DIMLDRBLK
  1

  9
$DIMLUNIT
 70
     2
  9
$DIMLWD
 70
    -2
  9
$DIMLWE
 70
    -2
  9
$DIMTMOVE
 70
     0
  9
$LUNITS
 70
     2
  9
$LUPREC
 70
     4
  9
$SKETCHINC
 40
0.1
  9
$FILLETRAD
 40
0.5
  9
$AUNITS
 70
     0
  9
$AUPREC
 70
     0
  9
$MENU
  1
.
  9
$ELEVATION
 40
0.0
  9
$PELEVATION
 40
0.0
  9
$THICKNESS
 40
0.0
  9
$LIMCHECK
 70
     0
  9
$CHAMFERA
 40
0.5
  9
$CHAMFERB
 40
0.5
  9
$CHAMFERC
 40
1.0
  9
$CHAMFERD
 40
0.0
  9
$SKPOLY
 70
     0
  9
$TDCREATE
 40
2456282.434144491
  9
$TDUCREATE
 40
2456282.392477824
  9
$TDUPDATE
 40
2456282.434144503
  9
$TDUUPDATE
 40
2456282.392477836
  9
$TDINDWG
 40
0.0000000116
  9
$TDUSRTIMER
 40
0.0000000116
  9
$USRTIMER
 70
     1
  9
$ANGBASE
 50
0.0
  9
$ANGDIR
 70
     0
  9
$PDMODE
 70
     0
  9
$PDSIZE
 40
0.0
  9
$PLINEWID
 40
0.0
  9
$SPLFRAME
 70
     0
  9
$SPLINETYPE
 70
     6
  9
$SPLINESEGS
 70
     8
  9
$HANDSEED
  5
374
  9
$SURFTAB1
 70
     6
  9
$SURFTAB2
 70
     6
  9
$SURFTYPE
 70
     6
  9
$SURFU
 70
     6
  9
$SURFV
 70
     6
  9
$UCSBASE
  2

  9
$UCSNAME
  2

  9
$UCSORG
 10
0.0
 20
0.0
 30
0.0
  9
$UCSXDIR
 10
1.0
 20
0.0
 30
0.0
  9
$UCSYDIR
 10
0.0
 20
1.0
 30
0.0
  9
$UCSORTHOREF
  2

  9
$UCSORTHOVIEW
 70
     0
  9
$UCSORGTOP
 10
0.0
 20
0.0
 30
0.0
  9
$UCSORGBOTTOM
 10
0.0
 20
0.0
 30
0.0
  9
$UCSORGLEFT
 10
0.0
 20
0.0
 30
0.0
  9
$UCSORGRIGHT
 10
0.0
 20
0.0
 30
0.0
  9
$UCSORGFRONT
 10
0.0
 20
0.0
 30
0.0
  9
$UCSORGBACK
 10
0.0
 20
0.0
 30
0.0
  9
$PUCSBASE
  2

  9
$PUCSNAME
  2

  9
$PUCSORG
 10
0.0
 20
0.0
 30
0.0
  9
$PUCSXDIR
 10
1.0
 20
0.0
 30
0.0
  9
$PUCSYDIR
 10
0.0
 20
1.0
 30
0.0
  9
$PUCSORTHOREF
  2

  9
$PUCSORTHOVIEW
 70
     0
  9
$PUCSORGTOP
 10
0.0
 20
0.0
 30
0.0
  9
$PUCSORGBOTTOM
 10
0.0
 20
0.0
 30
0.0
  9
$PUCSORGLEFT
 10
0.0
 20
0.0
 30
0.0
  9
$PUCSORGRIGHT
 10
0.0
 20
0.0
 30
0.0
  9
$PUCSORGFRONT
 10
0.0
 20
0.0
 30
0.0
  9
$PUCSORGBACK
 10
0.0
 20
0.0
 30
0.0
  9
$USERI1
 70
     0
  9
$USERI2
 70
     0
  9
$USERI3
 70
     0
  9
$USERI4
 70
     0
  9
$USERI5
 70
     0
  9
$USERR1
 40
18.0
  9
$USERR2
 40
0.0
  9
$USERR3
 40
0.0
  9
$USERR4
 40
0.0
  9
$USERR5
 40
0.0
  9
$WORLDVIEW
 70
     1
  9
$SHADEDGE
 70
     3
  9
$SHADEDIF
 70
    70
  9
$TILEMODE
 70
     1
  9
$MAXACTVP
 70
    64
  9
$PINSBASE
 10
0.0
 20
0.0
 30
0.0
  9
$PLIMCHECK
 70
     0
  9
$PEXTMIN
 10
1.00000000000000E+20
 20
1.00000000000000E+20
 30
1.00000000000000E+20
  9
$PEXTMAX
 10
-1.00000000000000E+20
 20
-1.00000000000000E+20
 30
-1.00000000000000E+20
  9
$PLIMMIN
 10
0.0
 20
0.0
  9
$PLIMMAX
 10
12.0
 20
9.0
  9
$UNITMODE
 70
     0
  9
$VISRETAIN
 70
     1
  9
$PLINEGEN
 70
     0
  9
$PSLTSCALE
 70
     1
  9
$TREEDEPTH
 70
  3020
  9
$CMLSTYLE
  2
Standard
  9
$CMLJUST
 70
     0
  9
$CMLSCALE
 40
1.0
  9
$PROXYGRAPHICS
 70
     1
  9
$MEASUREMENT
 70
     1
  9
$CELWEIGHT
370
    -1
  9
$ENDCAPS
280
     0
  9
$JOINSTYLE
280
     0
  9
$LWDISPLAY
290
     0
  9
$INSUNITS
 70
     1
  9
$HYPERLINKBASE
  1

  9
$STYLESHEET
  1

  9
$XEDIT
290
     1
  9
$CEPSNTYPE
380
     0
  9
$PSTYLEMODE
290
     1
  9
$FINGERPRINTGUID
  2
{8D83463A-95E1-4D53-AD2F-2EF0D4191A03}
  9
$VERSIONGUID
  2
{FAEB1C32-E019-11D5-929B-00C0DF256EC4}
  9
$EXTNAMES
290
     1
  9
$PSVPSCALE
 40
0.0
  9
$OLESTARTUP
290
     0
  0
ENDSEC
  0
SECTION
  2
CLASSES
  0
CLASS
  1
ACDBDICTIONARYWDFLT
  2
AcDbDictionaryWithDefault
  3
ObjectDBX Classes
 90
        0
280
     0
281
     0
  0
CLASS
  1
VISUALSTYLE
  2
AcDbVisualStyle
  3
ObjectDBX Classes
 90
     4095
280
     0
281
     0
  0
CLASS
  1
MATERIAL
  2
AcDbMaterial
  3
ObjectDBX Classes
 90
     1153
280
     0
281
     0
  0
CLASS
  1
SCALE
  2
AcDbScale
  3
ObjectDBX Classes
 90
     1153
280
     0
281
     0
  0
CLASS
  1

  2
exOdDbCircle
  3

 90
        0
280
     0
281
     1
  0
CLASS
  1

  2
exOdDbSpline
  3

 90
        0
280
     0
281
     1
  0
CLASS
  1

  2
exOdDbPolyline
  3

 90
        0
280
     0
281
     1
  0
CLASS
  1
DICTIONARYVAR
  2
AcDbDictionaryVar
  3
ObjectDBX Classes
 90
        0
280
     0
281
     0
  0
CLASS
  1
ACDBPLACEHOLDER
  2
AcDbPlaceHolder
  3
ObjectDBX Classes
 90
        0
280
     0
281
     0
  0
CLASS
  1
LAYOUT
  2
AcDbLayout
  3
ObjectDBX Classes
 90
        0
280
     0
281
     0
  0
ENDSEC
  0
SECTION
  2
TABLES
  0
TABLE
  2
VPORT
  5
8
330
0
100
AcDbSymbolTable
 70
     1
  0
VPORT
  5
29
330
8
100
AcDbSymbolTableRecord
100
AcDbViewportTableRecord
  2
*Active
 70
     0
 10
0.0
 20
0.0
 11
1.0
 21
1.0
 12
297.0
 22
219.9999999999999
 13
0.0
 23
0.0
 14
0.5
 24
0.5
 15
0.5
 25
0.5
 16
0.0
 26
0.0
 36
1.0
 17
0.0
 27
0.0
 37
0.0
 40
440.0000000000002
 41
1.60267857142857
 42
50.0
 43
0.0
 44
0.0
 50
0.0
 51
0.0
 71
     0
 72
   100
 73
     1
 74
     3
 75
     0
 76
     0
 77
     0
 78
     0
281
     0
 65
     1
110
0.0
120
0.0
130
0.0
111
1.0
121
0.0
131
0.0
112
0.0
122
1.0
132
0.0
 79
     0
146
0.0
  0
ENDTAB
  0
TABLE
  2
LTYPE
  5
5
330
0
100
AcDbSymbolTable
 70
    10
  0
LTYPE
  5
14
330
5
100
AcDbSymbolTableRecord
100
AcDbLinetypeTableRecord
  2
ByBlock
 70
     0
  3

 72
    65
 73
     0
 40
0.0
  0
LTYPE
  5
15
330
5
100
AcDbSymbolTableRecord
100
AcDbLinetypeTableRecord
  2
ByLayer
 70
     0
  3

 72
    65
 73
     0
 40
0.0
  0
LTYPE
  5
16
330
5
100
AcDbSymbolTableRecord
100
AcDbLinetypeTableRecord
  2
Continuous
 70
     0
  3
Solid line
 72
    65
 73
     0
 40
0.0
  0
LTYPE
  5
3F
330
5
100
AcDbSymbolTableRecord
100
AcDbLinetypeTableRecord
  2
DASHED
 70
     0
  3
Dashed
 72
    65
 73
     2
 40
15.0
 49
7.0
 74
     0
 49
-8.0
 74
     0
  0
LTYPE
  5
40
330
5
100
AcDbSymbolTableRecord
100
AcDbLinetypeTableRecord
  2
DOTTED
 70
     0
  3
Dotted
 72
    65
 73
     2
 40
1.0
 49
0.0
 74
     0
 49
-1.0
 74
     0
  0
LTYPE
  5
41
330
5
100
AcDbSymbolTableRecord
100
AcDbLinetypeTableRecord
  2
DOT_CENTER
 70
     0
  3
Dot_Center
 72
    65
 73
     4
 40
14.0
 49
12.0
 74
     0
 49
-1.0
 74
     0
 49
0.0
 74
     0
 49
-1.0
 74
     0
  0
LTYPE
  5
42
330
5
100
AcDbSymbolTableRecord
100
AcDbLinetypeTableRecord
  2
LONG_DASHED
 70
     0
  3
Long_Dashed
 72
    65
 73
     2
 40
15.0
 49
10.0
 74
     0
 49
-5.0
 74
     0
  0
LTYPE
  5
43
330
5
100
AcDbSymbolTableRecord
100
AcDbLinetypeTableRecord
  2
DASH_CENTER
 70
     0
  3
Dash_Center
 72
    65
 73
     4
 40
14.0
 49
11.0
 74
     0
 49
-1.0
 74
     0
 49
1.0
 74
     0
 49
-1.0
 74
     0
  0
LTYPE
  5
44
330
5
100
AcDbSymbolTableRecord
100
AcDbLinetypeTableRecord
  2
PHANTOM
 70
     0
  3
Phantom
 72
    65
 73
     6
 40
13.0
 49
10.0
 74
     0
 49
-1.0
 74
     0
 49
0.0
 74
     0
 49
-1.0
 74
     0
 49
0.0
 74
     0
 49
-1.0
 74
     0
  0
LTYPE
  5
45
330
5
100
AcDbSymbolTableRecord
100
AcDbLinetypeTableRecord
  2
CENTER_DASH_DASH
 70
     0
  3
Center_Dash_Dash
 72
    65
 73
     6
 40
14.0
 49
9.0
 74
     0
 49
-1.0
 74
     0
 49
1.0
 74
     0
 49
-1.0
 74
     0
 49
1.0
 74
     0
 49
-1.0
 74
     0
  0
LTYPE
  5
46
330
5
100
AcDbSymbolTableRecord
100
AcDbLinetypeTableRecord
  2
DASHED_SPACE
 70
     0
  3
DASHED_SPACE
 72
    65
 73
     2
 40
2.0
 49
1.0
 74
     0
 49
-1.0
 74
     0
  0
LTYPE
  5
47
330
5
100
AcDbSymbolTableRecord
100
AcDbLinetypeTableRecord
  2
CHAIN
 70
     0
  3
CHAIN
 72
    65
 73
     4
 40
4.0
 49
1.0
 74
     0
 49
-1.0
 74
     0
 49
1.0
 74
     0
 49
-1.0
 74
     0
  0
ENDTAB
  0
TABLE
  2
LAYER
  5
2
330
0
100
AcDbSymbolTable
 70
    10
  0
LAYER
  5
10
330
2
100
AcDbSymbolTableRecord
100
AcDbLayerTableRecord
  2
0
 70
     0
 62
     7
  6
Continuous
370
    -3
390
F
  0
LAYER
  5
48
330
2
100
AcDbSymbolTableRecord
100
AcDbLayerTableRecord
  2
Bemaßungen_TC_020513_DIN_
 70
     0
 62
     7
  6
Continuous
370
    -3
390
F
  0
LAYER
  5
49
330
2
100
AcDbSymbolTableRecord
100
AcDbLayerTableRecord
  2
Mittellinie_TC_020513_DIN_
 70
     0
 62
     7
  6
Continuous
370
    -3
390
F
  0
LAYER
  5
4A
330
2
100
AcDbSymbolTableRecord
100
AcDbLayerTableRecord
  2
Mittelpunktmarkierung_TC_020513_DIN_
 70
     0
 62
     7
  6
Continuous
370
    -3
390
F
  0
LAYER
  5
4B
330
2
100
AcDbSymbolTableRecord
100
AcDbLayerTableRecord
  2
Schraffur
 70
     0
 62
     7
  6
Continuous
370
    -3
390
F
  0
LAYER
  5
4C
330
2
100
AcDbSymbolTableRecord
100
AcDbLayerTableRecord
  2
Sichtbare_Kanten_TC_020513_DIN_
 70
     0
 62
     7
  6
Continuous
370
    -3
390
F
  0
LAYER
  5
4D
330
2
100
AcDbSymbolTableRecord
100
AcDbLayerTableRecord
  2
Skizziergeometrie_ISO_
 70
     0
 62
     7
  6
Continuous
370
    -3
390
F
  0
LAYER
  5
4E
330
2
100
AcDbSymbolTableRecord
100
AcDbLayerTableRecord
  2
Stich_1-Linien_TC_020513_DIN_
 70
     0
 62
     7
  6
Continuous
370
    -3
390
F
  0
LAYER
  5
4F
330
2
100
AcDbSymbolTableRecord
100
AcDbLayerTableRecord
  2
Symbole_ISO_
 70
     0
 62
     7
  6
Continuous
370
    -3
390
F
  0
LAYER
  5
50
330
2
100
AcDbSymbolTableRecord
100
AcDbLayerTableRecord
  2
Symbole_TC_020513_DIN_
 70
     0
 62
     7
  6
Continuous
370
    -3
390
F
  0
ENDTAB
  0
TABLE
  2
STYLE
  5
3
330
0
100
AcDbSymbolTable
 70
     5
  0
STYLE
  5
11
330
3
100
AcDbSymbolTableRecord
100
AcDbTextStyleTableRecord
  2
Standard
 70
     0
 40
0.0
 41
1.0
 50
0.0
 71
     0
 42
0.2
  3
txt
  4

  0
STYLE
  5
D9
330
3
100
AcDbSymbolTableRecord
100
AcDbTextStyleTableRecord
  2
CONVERTER_11
 70
     0
 40
0.0
 41
0.59999996423721
 50
0.0
 71
     0
 42
0.2
  3
txt.shx
  4

  0
STYLE
  5
DB
330
3
100
AcDbSymbolTableRecord
100
AcDbTextStyleTableRecord
  2
CONVERTER_12
 70
     0
 40
0.0
 41
0.67499998211861
 50
0.0
 71
     0
 42
0.2
  3
txt.shx
  4

  0
STYLE
  5
2D4
330
3
100
AcDbSymbolTableRecord
100
AcDbTextStyleTableRecord
  2
CONVERTER_13
 70
     0
 40
0.0
 41
0.75
 50
0.0
 71
     0
 42
0.2
  3
txt.shx
  4

  0
STYLE
  5
2D6
330
3
100
AcDbSymbolTableRecord
100
AcDbTextStyleTableRecord
  2
CONVERTER_14
 70
     0
 40
0.0
 41
0.89999994635582
 50
0.0
 71
     0
 42
0.2
  3
txt.shx
  4

  0
ENDTAB
  0
TABLE
  2
VIEW
  5
6
330
0
100
AcDbSymbolTable
 70
     0
  0
ENDTAB
  0
TABLE
  2
UCS
  5
7
330
0
100
AcDbSymbolTable
 70
     0
  0
ENDTAB
  0
TABLE
  2
APPID
  5
9
330
0
100
AcDbSymbolTable
 70
     1
  0
APPID
  5
12
330
9
100
AcDbSymbolTableRecord
100
AcDbRegAppTableRecord
  2
ACAD
 70
     0
  0
ENDTAB
  0
TABLE
  2
DIMSTYLE
  5
A
330
0
100
AcDbSymbolTable
 70
    11
100
AcDbDimStyleTable
  0
DIMSTYLE
105
27
330
A
100
AcDbSymbolTableRecord
100
AcDbDimStyleTableRecord
  2
Standard
 70
     0
340
11
  0
DIMSTYLE
105
2E3
102
{ACAD_REACTORS
330
2E4
102
}
330
A
100
AcDbSymbolTableRecord
100
AcDbDimStyleTableRecord
  2
ME10_DIM_10
 70
     0
 41
5.0
 42
2.0
 44
4.0
 73
     0
 74
     0
 77
     1
 78
    12
140
7.0
147
0.8
172
     1
173
     1
174
     1
175
     1
176
     7
177
     7
178
     7
271
     2
340
2D4
  0
DIMSTYLE
105
2EE
102
{ACAD_REACTORS
330
2EF
102
}
330
A
100
AcDbSymbolTableRecord
100
AcDbDimStyleTableRecord
  2
ME10_DIM_11
 70
     0
 41
5.0
 42
2.0
 44
4.0
 73
     0
 74
     0
 77
     1
 78
    12
140
7.0
147
0.8
172
     1
173
     1
174
     1
175
     1
176
     7
177
     7
178
     7
271
     2
340
2D4
  0
DIMSTYLE
105
2F9
102
{ACAD_REACTORS
330
2FA
102
}
330
A
100
AcDbSymbolTableRecord
100
AcDbDimStyleTableRecord
  2
ME10_DIM_12
 70
     0
 41
5.0
 42
2.0
 44
4.0
 73
     0
 74
     0
 77
     1
 78
    12
140
7.0
147
0.8
172
     1
173
     1
174
     1
175
     1
176
     7
177
     7
178
     7
271
     2
340
2D4
  0
DIMSTYLE
105
304
102
{ACAD_REACTORS
330
305
102
}
330
A
100
AcDbSymbolTableRecord
100
AcDbDimStyleTableRecord
  2
ME10_DIM_13
 70
     0
 41
5.0
 42
2.0
 44
4.0
 73
     0
 74
     0
 77
     1
 78
    12
140
7.0
147
0.8
172
     1
173
     1
174
     1
175
     1
176
     7
177
     7
178
     7
271
     2
340
2D4
  0
DIMSTYLE
105
30F
102
{ACAD_REACTORS
330
310
102
}
330
A
100
AcDbSymbolTableRecord
100
AcDbDimStyleTableRecord
  2
ME10_DIM_14
 70
     0
 41
5.0
 42
2.0
 44
4.0
 73
     0
 74
     0
 77
     1
 78
    12
140
7.0
147
0.8
172
     1
173
     1
174
     1
175
     1
176
     7
177
     7
178
     7
271
     2
340
2D4
  0
DIMSTYLE
105
31A
102
{ACAD_REACTORS
330
31B
102
}
330
A
100
AcDbSymbolTableRecord
100
AcDbDimStyleTableRecord
  2
ME10_DIM_15
 70
     0
 41
5.0
 42
2.0
 44
4.0
 73
     0
 74
     0
 77
     1
 78
    12
140
7.0
147
0.8
172
     1
173
     1
174
     1
175
     1
176
     7
177
     7
178
     7
271
     2
340
2D4
  0
DIMSTYLE
105
325
102
{ACAD_REACTORS
330
326
102
}
330
A
100
AcDbSymbolTableRecord
100
AcDbDimStyleTableRecord
  2
ME10_DIM_16
 70
     0
 41
5.0
 42
2.0
 44
4.0
 73
     0
 74
     0
 77
     1
 78
    12
140
7.0
147
0.8
172
     1
173
     1
174
     1
175
     1
176
     7
177
     7
178
     7
271
     2
340
2D4
  0
DIMSTYLE
105
330
102
{ACAD_REACTORS
330
331
102
}
330
A
100
AcDbSymbolTableRecord
100
AcDbDimStyleTableRecord
  2
ME10_DIM_17
 70
     0
 41
5.0
 42
2.0
 44
4.0
 73
     0
 74
     0
 77
     1
 78
    12
140
7.0
147
0.8
172
     1
173
     1
174
     1
175
     1
176
     7
177
     7
178
     7
271
     2
340
2D4
  0
DIMSTYLE
105
33B
102
{ACAD_REACTORS
330
33C
102
}
330
A
100
AcDbSymbolTableRecord
100
AcDbDimStyleTableRecord
  2
ME10_DIM_18
 70
     0
 41
5.0
 42
2.0
 44
4.0
 73
     0
 74
     0
 77
     1
 78
    12
140
7.0
147
0.8
172
     1
173
     1
174
     1
175
     1
176
     7
177
     7
178
     7
271
     2
340
2D4
  0
DIMSTYLE
105
346
102
{ACAD_REACTORS
330
347
102
}
330
A
100
AcDbSymbolTableRecord
100
AcDbDimStyleTableRecord
  2
ME10_DIM_19
 70
     0
 41
5.0
 42
2.0
 44
4.0
 73
     0
 74
     0
 77
     1
 78
    12
140
7.0
147
0.8
172
     1
173
     1
174
     1
175
     1
176
     7
177
     7
178
     7
271
     2
340
2D4
  0
ENDTAB
  0
TABLE
  2
BLOCK_RECORD
  5
1
330
0
100
AcDbSymbolTable
 70
    13
  0
BLOCK_RECORD
  5
1F
330
1
100
AcDbSymbolTableRecord
100
AcDbBlockTableRecord
  2
*Model_Space
340
22
  0
BLOCK_RECORD
  5
1B
330
1
100
AcDbSymbolTableRecord
100
AcDbBlockTableRecord
  2
*Paper_Space
340
1E
  0
BLOCK_RECORD
  5
23
330
1
100
AcDbSymbolTableRecord
100
AcDbBlockTableRecord
  2
*Paper_Space0
340
26
  0
BLOCK_RECORD
  5
51
330
1
100
AcDbSymbolTableRecord
100
AcDbBlockTableRecord
  2
Schriftfelder_Ilme
340
0
102
{BLKREFS
331
79
102
}
  0
BLOCK_RECORD
  5
54
330
1
100
AcDbSymbolTableRecord
100
AcDbBlockTableRecord
  2
Ränder_Ilme_Rahmen_A4_quer
340
0
102
{BLKREFS
331
7A
102
}
  0
BLOCK_RECORD
  5
2DA
330
1
100
AcDbSymbolTableRecord
100
AcDbBlockTableRecord
  2
*D3
340
0
  0
BLOCK_RECORD
  5
2E5
330
1
100
AcDbSymbolTableRecord
100
AcDbBlockTableRecord
  2
*D4
340
0
  0
BLOCK_RECORD
  5
2F0
330
1
100
AcDbSymbolTableRecord
100
AcDbBlockTableRecord
  2
*D5
340
0
  0
BLOCK_RECORD
  5
2FB
330
1
100
AcDbSymbolTableRecord
100
AcDbBlockTableRecord
  2
*D6
340
0
  0
BLOCK_RECORD
  5
306
330
1
100
AcDbSymbolTableRecord
100
AcDbBlockTableRecord
  2
*D7
340
0
  0
BLOCK_RECORD
  5
311
330
1
100
AcDbSymbolTableRecord
100
AcDbBlockTableRecord
  2
*D8
340
0
  0
BLOCK_RECORD
  5
31C
330
1
100
AcDbSymbolTableRecord
100
AcDbBlockTableRecord
  2
*D9
340
0
  0
BLOCK_RECORD
  5
327
330
1
100
AcDbSymbolTableRecord
100
AcDbBlockTableRecord
  2
*D10
340
0
  0
BLOCK_RECORD
  5
332
330
1
100
AcDbSymbolTableRecord
100
AcDbBlockTableRecord
  2
*D11
340
0
  0
BLOCK_RECORD
  5
33D
330
1
100
AcDbSymbolTableRecord
100
AcDbBlockTableRecord
  2
*D12
340
0
  0
ENDTAB
  0
ENDSEC
  0
SECTION
  2
BLOCKS
  0
BLOCK
  5
20
330
1F
100
AcDbEntity
  8
0
100
AcDbBlockBegin
  2
*Model_Space
 70
     0
 10
0.0
 20
0.0
 30
0.0
  3
*Model_Space
  1

  0
ENDBLK
  5
21
330
1F
100
AcDbEntity
  8
0
100
AcDbBlockEnd
  0
BLOCK
  5
1C
330
1B
100
AcDbEntity
 67
     1
  8
0
100
AcDbBlockBegin
  2
*Paper_Space
 70
     0
 10
0.0
 20
0.0
 30
0.0
  3
*Paper_Space
  1

  0
ENDBLK
  5
1D
330
1B
100
AcDbEntity
 67
     1
  8
0
100
AcDbBlockEnd
  0
BLOCK
  5
24
330
23
100
AcDbEntity
  8
0
100
AcDbBlockBegin
  2
*Paper_Space0
 70
     0
 10
0.0
 20
0.0
 30
0.0
  3
*Paper_Space0
  1

  0
ENDBLK
  5
25
330
23
100
AcDbEntity
  8
0
100
AcDbBlockEnd
  0
BLOCK
  5
52
330
51
100
AcDbEntity
  8
0
100
AcDbBlockBegin
  2
Schriftfelder_Ilme
 70
     0
 10
0.0
 20
0.0
 30
0.0
  3
Schriftfelder_Ilme
  1

  0
LINE
  5
7B
330
51
100
AcDbEntity
  8
Skizziergeometrie_ISO_
  6
Continuous
 62
     7
100
AcDbLine
 10
19.980189950303
 20
45.0006400926262
 30
0.0
 11
19.980189950303
 21
10.0006400926262
 31
0.0
  0
LINE
  5
7C
330
51
100
AcDbEntity
  8
Skizziergeometrie_ISO_
  6
Continuous
 62
     7
100
AcDbLine
 10
189.655184537377
 20
14.2880685085818
 30
0.0
 11
189.655184537377
 21
19.2535360148728
 31
0.0
  0
LINE
  5
7D
330
51
100
AcDbEntity
  8
Skizziergeometrie_ISO_
  6
Continuous
 62
     7
100
AcDbLine
 10
189.655184537377
 20
19.2535360148728
 30
0.0
 11
188.7995275176
 21
17.7714945827671
 31
0.0
  0
LINE
  5
7E
330
51
100
AcDbEntity
  8
Skizziergeometrie_ISO_
  6
Continuous
 62
     7
100
AcDbLine
 10
188.510852383006
 20
17.7714945827671
 30
0.0
 11
187.655195363229
 21
19.2535360148728
 31
0.0
  0
LINE
  5
7F
330
51
100
AcDbEntity
  8
Skizziergeometrie_ISO_
  6
Continuous
 62
     7
100
AcDbLine
 10
187.655195363229
 20
19.2535360148728
 30
0.0
 11
187.655195363229
 21
15.8473707016896
 31
0.0
  0
LINE
  5
80
330
51
100
AcDbEntity
  8
Skizziergeometrie_ISO_
  6
Continuous
 62
     7
100
AcDbLine
 10
180.238754675162
 20
17.6450043569675
 30
0.0
 11
188.655189950303
 21
22.500640092627
 31
0.0
  0
LINE
  5
81
330
51
100
AcDbEntity
  8
Skizziergeometrie_ISO_
  6
Continuous
 62
     7
100
AcDbLine
 10
188.655189950303
 20
22.500640092627
 30
0.0
 11
197.071625225444
 21
17.6450043569675
 31
0.0
  0
LINE
  5
82
330
51
100
AcDbEntity
  8
Skizziergeometrie_ISO_
  6
Continuous
 62
     7
100
AcDbLine
 10
197.071625225444
 20
17.3562758282849
 30
0.0
 11
188.655189950303
 21
12.5006400926254
 31
0.0
  0
LINE
  5
83
330
51
100
AcDbEntity
  8
Skizziergeometrie_ISO_
  6
Continuous
 62
     7
100
AcDbLine
 10
188.655189950303
 20
12.5006400926254
 30
0.0
 11
180.238754675162
 21
17.3562758282849
 31
0.0
  0
LINE
  5
84
330
51
100
AcDbEntity
  8
Skizziergeometrie_ISO_
  6
Continuous
 62
     7
100
AcDbLine
 10
186.988528696563
 20
15.8473707016896
 30
0.0
 11
186.988528696562
 21
20.7526980593071
 31
0.0
  0
LINE
  5
85
330
51
100
AcDbEntity
  8
Skizziergeometrie_ISO_
  6
Continuous
 62
     7
100
AcDbLine
 10
187.482962380186
 20
20.8851811655447
 30
0.0
 11
188.655189950303
 21
18.8548234560689
 31
0.0
  0
LINE
  5
86
330
51
100
AcDbEntity
  8
Skizziergeometrie_ISO_
  6
Continuous
 62
     7
100
AcDbLine
 10
190.321851204044
 20
14.2880685085818
 30
0.0
 11
190.321851204044
 21
20.752698059307
 31
0.0
  0
LINE
  5
87
330
51
100
AcDbEntity
  8
Skizziergeometrie_ISO_
  6
Continuous
 62
     7
100
AcDbLine
 10
189.82741752042
 20
20.8851811655447
 30
0.0
 11
188.655189950303
 21
18.8548234560689
 31
0.0
  0
LINE
  5
88
330
51
100
AcDbEntity
  8
Skizziergeometrie_ISO_
  6
Continuous
 62
     7
100
AcDbLine
 10
185.655190959106
 20
15.2706619304882
 30
0.0
 11
185.655190959106
 21
19.9439783665993
 31
0.0
  0
LINE
  5
89
330
51
100
AcDbEntity
  8
Skizziergeometrie_ISO_
  6
Continuous
 62
     7
100
AcDbLine
 10
186.321857625773
 20
19.9439783665993
 30
0.0
 11
186.321857625773
 21
15.270660658657
 31
0.0
  0
LINE
  5
8A
330
51
100
AcDbEntity
  8
Skizziergeometrie_ISO_
  6
Continuous
 62
     7
100
AcDbLine
 10
186.321857625773
 20
15.270660658657
 30
0.0
 11
188.489493932086
 21
14.0201012511681
 31
0.0
  0
LINE
  5
8B
330
51
100
AcDbEntity
  8
Skizziergeometrie_ISO_
  6
Continuous
 62
     7
100
AcDbLine
 10
188.15634562976
 20
13.4426441938023
 30
0.0
 11
185.988710425088
 21
14.6932029657285
 31
0.0
  0
LINE
  5
8C
330
51
100
AcDbEntity
  8
Skizziergeometrie_ISO_
  6
Continuous
 62
     7
100
AcDbLine
 10
184.988523283636
 20
19.1539094835628
 30
0.0
 11
184.988523283636
 21
15.8473707016896
 31
0.0
  0
LINE
  5
8D
330
51
100
AcDbEntity
  8
Skizziergeometrie_ISO_
  6
Continuous
 62
     7
100
AcDbLine
 10
184.32185661697
 20
15.8473707016896
 30
0.0
 11
184.32185661697
 21
19.1539094835628
 31
0.0
  0
LINE
  5
8E
330
51
100
AcDbEntity
  8
Skizziergeometrie_ISO_
  6
Continuous
 62
     7
100
AcDbLine
 10
191.48842975933
 20
20.2327068952822
 30
0.0
 11
192.857882489926
 21
19.4426380122457
 31
0.0
  0
LINE
  5
8F
330
51
100
AcDbEntity
  8
Skizziergeometrie_ISO_
  6
Continuous
 62
     7
100
AcDbLine
 10
192.5247341876
 20
18.8651809548799
 30
0.0
 11
191.6551889415
 21
19.3668416737836
 31
0.0
  0
LINE
  5
90
330
51
100
AcDbEntity
  8
Skizziergeometrie_ISO_
  6
Continuous
 62
     7
100
AcDbLine
 10
191.6551889415
 20
19.3668416737836
 30
0.0
 11
191.6551889415
 21
17.8339734259596
 31
0.0
  0
LINE
  5
91
330
51
100
AcDbEntity
  8
Skizziergeometrie_ISO_
  6
Continuous
 62
     7
100
AcDbLine
 10
191.6551889415
 20
17.8339734259596
 30
0.0
 11
192.691308338763
 21
17.8339734259596
 31
0.0
  0
LINE
  5
92
330
51
100
AcDbEntity
  8
Skizziergeometrie_ISO_
  6
Continuous
 62
     7
100
AcDbLine
 10
192.691308338763
 20
17.1673067592928
 30
0.0
 11
191.6551889415
 21
17.1673067592928
 31
0.0
  0
LINE
  5
93
330
51
100
AcDbEntity
  8
Skizziergeometrie_ISO_
  6
Continuous
 62
     7
100
AcDbLine
 10
191.6551889415
 20
17.1673067592928
 30
0.0
 11
191.6551889415
 21
15.6344385114688
 31
0.0
  0
LINE
  5
94
330
51
100
AcDbEntity
  8
Skizziergeometrie_ISO_
  6
Continuous
 62
     7
100
AcDbLine
 10
191.6551889415
 20
15.6344385114688
 30
0.0
 11
192.5247341876
 21
16.1360992303725
 31
0.0
  0
LINE
  5
95
330
51
100
AcDbEntity
  8
Skizziergeometrie_ISO_
  6
Continuous
 62
     7
100
AcDbLine
 10
192.857882489926
 20
15.5586421730067
 30
0.0
 11
191.48842975933
 21
14.7685732899702
 31
0.0
  0
LINE
  5
96
330
51
100
AcDbEntity
  8
Skizziergeometrie_ISO_
  6
Continuous
 62
     7
100
AcDbLine
 10
190.988522274833
 20
15.0573018186531
 30
0.0
 11
190.988522274833
 21
19.9439783665993
 31
0.0
  0
LINE
  5
97
330
51
100
AcDbEntity
  8
Skizziergeometrie_ISO_
  6
Continuous
 62
     7
100
AcDbLine
 10
177.330189950303
 20
25.0006400926262
 30
0.0
 11
177.330189950303
 21
10.0006400926262
 31
0.0
  0
LINE
  5
98
330
51
100
AcDbEntity
  8
Skizziergeometrie_ISO_
  6
Continuous
 62
     7
100
AcDbLine
 10
159.980189950303
 20
25.0006400926262
 30
0.0
 11
159.980189950303
 21
10.0006400926262
 31
0.0
  0
LINE
  5
99
330
51
100
AcDbEntity
  8
Skizziergeometrie_ISO_
  6
Continuous
 62
     7
100
AcDbLine
 10
49.9801899503031
 20
10.0006400926262
 30
0.0
 11
49.9801899503031
 21
25.0006400926262
 31
0.0
  0
LINE
  5
9A
330
51
100
AcDbEntity
  8
Skizziergeometrie_ISO_
  6
Continuous
 62
     7
100
AcDbLine
 10
44.980189950303
 20
45.0006400926262
 30
0.0
 11
44.980189950303
 21
25.0006400926262
 31
0.0
  0
LINE
  5
9B
330
51
100
AcDbEntity
  8
Skizziergeometrie_ISO_
  6
Continuous
 62
     7
100
AcDbLine
 10
26.980189950303
 20
45.0006400926262
 30
0.0
 11
26.980189950303
 21
25.0006400926262
 31
0.0
  0
LINE
  5
9C
330
51
100
AcDbEntity
  8
Skizziergeometrie_ISO_
  6
Continuous
 62
     7
100
AcDbLine
 10
19.980189950303
 20
17.5006400926262
 30
0.0
 11
49.9801899503031
 21
17.5006400926262
 31
0.0
  0
LINE
  5
9D
330
51
100
AcDbEntity
  8
Skizziergeometrie_ISO_
  6
Continuous
 62
     7
100
AcDbLine
 10
19.980189950303
 20
25.0006400926262
 30
0.0
 11
199.980189950303
 21
25.0006400926262
 31
0.0
  0
LINE
  5
9E
330
51
100
AcDbEntity
  8
Skizziergeometrie_ISO_
  6
Continuous
 62
     7
100
AcDbLine
 10
19.980189950303
 20
30.0006400926262
 30
0.0
 11
199.980189950303
 21
30.0006400926262
 31
0.0
  0
LINE
  5
9F
330
51
100
AcDbEntity
  8
Skizziergeometrie_ISO_
  6
Continuous
 62
     7
100
AcDbLine
 10
19.980189950303
 20
35.0006400926262
 30
0.0
 11
199.980189950303
 21
35.0006400926262
 31
0.0
  0
LINE
  5
A0
330
51
100
AcDbEntity
  8
Skizziergeometrie_ISO_
  6
Continuous
 62
     7
100
AcDbLine
 10
19.980189950303
 20
40.0006400926262
 30
0.0
 11
199.980189950303
 21
40.0006400926262
 31
0.0
  0
LINE
  5
A1
330
51
100
AcDbEntity
  8
Skizziergeometrie_ISO_
  6
Continuous
 62
     7
100
AcDbLine
 10
19.980189950303
 20
45.0006400926262
 30
0.0
 11
199.980189950303
 21
45.0006400926262
 31
0.0
  0
LINE
  5
A2
102
{ACAD_REACTORS
330
DF
102
}
330
51
100
AcDbEntity
  8
0
  6
Continuous
 62
     7
100
AcDbLine
 10
192.857882489926
 20
15.5586421730067
 30
0.0
 11
191.48842975933
 21
14.7685732899702
 31
0.0
  0
LINE
  5
A3
102
{ACAD_REACTORS
330
DF
102
}
330
51
100
AcDbEntity
  8
0
  6
Continuous
 62
     7
100
AcDbLine
 10
190.988522274833
 20
15.0573018186531
 30
0.0
 11
190.988522274833
 21
19.9439783665993
 31
0.0
  0
LINE
  5
A4
102
{ACAD_REACTORS
330
DF
102
}
330
51
100
AcDbEntity
  8
0
  6
Continuous
 62
     7
100
AcDbLine
 10
191.48842975933
 20
20.2327068952822
 30
0.0
 11
192.857882489926
 21
19.4426380122457
 31
0.0
  0
LINE
  5
A5
102
{ACAD_REACTORS
330
DF
102
}
330
51
100
AcDbEntity
  8
0
  6
Continuous
 62
     7
100
AcDbLine
 10
192.5247341876
 20
18.8651809548799
 30
0.0
 11
191.6551889415
 21
19.3668416737836
 31
0.0
  0
LINE
  5
A6
102
{ACAD_REACTORS
330
DF
102
}
330
51
100
AcDbEntity
  8
0
  6
Continuous
 62
     7
100
AcDbLine
 10
191.6551889415
 20
19.3668416737836
 30
0.0
 11
191.6551889415
 21
17.8339734259596
 31
0.0
  0
LINE
  5
A7
102
{ACAD_REACTORS
330
DF
102
}
330
51
100
AcDbEntity
  8
0
  6
Continuous
 62
     7
100
AcDbLine
 10
191.6551889415
 20
17.8339734259596
 30
0.0
 11
192.691308338763
 21
17.8339734259596
 31
0.0
  0
LINE
  5
A8
102
{ACAD_REACTORS
330
DF
102
}
330
51
100
AcDbEntity
  8
0
  6
Continuous
 62
     7
100
AcDbLine
 10
192.691308338763
 20
17.1673067592928
 30
0.0
 11
191.6551889415
 21
17.1673067592928
 31
0.0
  0
LINE
  5
A9
102
{ACAD_REACTORS
330
DF
102
}
330
51
100
AcDbEntity
  8
0
  6
Continuous
 62
     7
100
AcDbLine
 10
191.6551889415
 20
17.1673067592928
 30
0.0
 11
191.6551889415
 21
15.6344385114688
 31
0.0
  0
LINE
  5
AA
102
{ACAD_REACTORS
330
DF
102
}
330
51
100
AcDbEntity
  8
0
  6
Continuous
 62
     7
100
AcDbLine
 10
191.6551889415
 20
15.6344385114688
 30
0.0
 11
192.5247341876
 21
16.1360992303725
 31
0.0
  0
LINE
  5
AB
102
{ACAD_REACTORS
330
E0
102
}
330
51
100
AcDbEntity
  8
0
  6
Continuous
 62
     7
100
AcDbLine
 10
186.988528696562
 20
20.7526980593071
 30
0.0
 11
186.988528696563
 21
15.8473707016896
 31
0.0
  0
LINE
  5
AC
102
{ACAD_REACTORS
330
E0
102
}
330
51
100
AcDbEntity
  8
0
  6
Continuous
 62
     7
100
AcDbLine
 10
187.655195363229
 20
15.8473707016896
 30
0.0
 11
187.655195363229
 21
19.2535360148728
 31
0.0
  0
LINE
  5
AD
102
{ACAD_REACTORS
330
E0
102
}
330
51
100
AcDbEntity
  8
0
  6
Continuous
 62
     7
100
AcDbLine
 10
187.655195363229
 20
19.2535360148728
 30
0.0
 11
188.510852383006
 21
17.7714945827671
 31
0.0
  0
LINE
  5
AE
102
{ACAD_REACTORS
330
E0
102
}
330
51
100
AcDbEntity
  8
0
  6
Continuous
 62
     7
100
AcDbLine
 10
188.7995275176
 20
17.7714945827671
 30
0.0
 11
189.655184537377
 21
19.2535360148728
 31
0.0
  0
LINE
  5
AF
102
{ACAD_REACTORS
330
E0
102
}
330
51
100
AcDbEntity
  8
0
  6
Continuous
 62
     7
100
AcDbLine
 10
189.655184537377
 20
19.2535360148728
 30
0.0
 11
189.655184537377
 21
14.2880685085818
 31
0.0
  0
LINE
  5
B0
102
{ACAD_REACTORS
330
E0
102
}
330
51
100
AcDbEntity
  8
0
  6
Continuous
 62
     7
100
AcDbLine
 10
190.321851204044
 20
14.2880685085818
 30
0.0
 11
190.321851204044
 21
20.752698059307
 31
0.0
  0
LINE
  5
B1
102
{ACAD_REACTORS
330
E0
102
}
330
51
100
AcDbEntity
  8
0
  6
Continuous
 62
     7
100
AcDbLine
 10
189.82741752042
 20
20.8851811655447
 30
0.0
 11
188.655189950303
 21
18.8548234560689
 31
0.0
  0
LINE
  5
B2
102
{ACAD_REACTORS
330
E0
102
}
330
51
100
AcDbEntity
  8
0
  6
Continuous
 62
     7
100
AcDbLine
 10
188.655189950303
 20
18.8548234560689
 30
0.0
 11
187.482962380186
 21
20.8851811655447
 31
0.0
  0
LINE
  5
B3
102
{ACAD_REACTORS
330
E1
102
}
330
51
100
AcDbEntity
  8
0
  6
Continuous
 62
     7
100
AcDbLine
 10
186.321857625773
 20
15.270660658657
 30
0.0
 11
186.321857625773
 21
19.9439783665993
 31
0.0
  0
LINE
  5
B4
102
{ACAD_REACTORS
330
E1
102
}
330
51
100
AcDbEntity
  8
0
  6
Continuous
 62
     7
100
AcDbLine
 10
185.655190959106
 20
19.9439783665993
 30
0.0
 11
185.655190959106
 21
15.2706619304882
 31
0.0
  0
LINE
  5
B5
102
{ACAD_REACTORS
330
E1
102
}
330
51
100
AcDbEntity
  8
0
  6
Continuous
 62
     7
100
AcDbLine
 10
185.988710425088
 20
14.6932029657285
 30
0.0
 11
188.15634562976
 21
13.4426441938023
 31
0.0
  0
LINE
  5
B6
102
{ACAD_REACTORS
330
E1
102
}
330
51
100
AcDbEntity
  8
0
  6
Continuous
 62
     7
100
AcDbLine
 10
188.489493932086
 20
14.0201012511681
 30
0.0
 11
186.321857625773
 21
15.270660658657
 31
0.0
  0
LINE
  5
B7
102
{ACAD_REACTORS
330
E2
102
}
330
51
100
AcDbEntity
  8
0
  6
Continuous
 62
     7
100
AcDbLine
 10
184.988523283636
 20
19.1539094835628
 30
0.0
 11
184.988523283636
 21
15.8473707016896
 31
0.0
  0
LINE
  5
B8
102
{ACAD_REACTORS
330
E2
102
}
330
51
100
AcDbEntity
  8
0
  6
Continuous
 62
     7
100
AcDbLine
 10
184.32185661697
 20
15.8473707016896
 30
0.0
 11
184.32185661697
 21
19.1539094835628
 31
0.0
  0
ARC
  5
B9
330
51
100
AcDbEntity
  8
Skizziergeometrie_ISO_
  6
Continuous
 62
     7
100
AcDbCircle
 10
188.655189950303
 20
17.8548279161004
 30
0.0
 40
0.1666666666662864
100
AcDbArc
 50
210.0000000000623
 51
329.9999999999426
  0
ARC
  5
BA
330
51
100
AcDbEntity
  8
Skizziergeometrie_ISO_
  6
Continuous
 62
     7
100
AcDbCircle
 10
186.321859827834
 20
15.2706619304882
 30
0.0
 40
0.66666886872801
100
AcDbArc
 50
180.0
 51
240.0183606311481
  0
ARC
  5
BB
330
51
100
AcDbEntity
  8
Skizziergeometrie_ISO_
  6
Continuous
 62
     7
100
AcDbCircle
 10
180.322041750744
 20
17.5006400926262
 30
0.0
 40
0.1666666666667581
100
AcDbArc
 50
119.9816393689942
 51
240.0183606310052
  0
ARC
  5
BC
330
51
100
AcDbEntity
  8
Skizziergeometrie_ISO_
  6
Continuous
 62
     7
100
AcDbCircle
 10
196.988338149862
 20
17.5006400926262
 30
0.0
 40
0.166666666666755
100
AcDbArc
 50
299.9816393689947
 51
60.01836063100586
  0
ARC
  5
BD
330
51
100
AcDbEntity
  8
Skizziergeometrie_ISO_
  6
Continuous
 62
     7
100
AcDbCircle
 10
191.321855608167
 20
19.9439783665993
 30
0.0
 40
0.3333333333332604
100
AcDbArc
 50
60.01836063118353
 51
180.0
  0
ARC
  5
BE
330
51
100
AcDbEntity
  8
Skizziergeometrie_ISO_
  6
Continuous
 62
     7
100
AcDbCircle
 10
191.321855608167
 20
15.0573018186531
 30
0.0
 40
0.3333333333339965
100
AcDbArc
 50
180.0
 51
299.9816393688164
  0
ARC
  5
BF
330
51
100
AcDbEntity
  8
Skizziergeometrie_ISO_
  6
Continuous
 62
     7
100
AcDbCircle
 10
187.253494909038
 20
20.7526980593071
 30
0.0
 40
0.2649662124751274
100
AcDbArc
 50
30.00000000000922
 51
180.0
  0
ARC
  5
C0
330
51
100
AcDbEntity
  8
Skizziergeometrie_ISO_
  6
Continuous
 62
     7
100
AcDbCircle
 10
187.321862029896
 20
15.8473707016896
 30
0.0
 40
0.3333333333330017
100
AcDbArc
 50
180.0
 51
0.0
  0
ARC
  5
C1
330
51
100
AcDbEntity
  8
Skizziergeometrie_ISO_
  6
Continuous
 62
     7
100
AcDbCircle
 10
189.98851787071
 20
14.2880685085818
 30
0.0
 40
0.3333333333330017
100
AcDbArc
 50
180.0
 51
0.0
  0
ARC
  5
C2
330
51
100
AcDbEntity
  8
Skizziergeometrie_ISO_
  6
Continuous
 62
     7
100
AcDbCircle
 10
190.056884991568
 20
20.752698059307
 30
0.0
 40
0.2649662124759971
100
AcDbArc
 50
0.0
 51
149.9999999999752
  0
ARC
  5
C3
330
51
100
AcDbEntity
  8
Skizziergeometrie_ISO_
  6
Continuous
 62
     7
100
AcDbCircle
 10
185.988524292439
 20
19.9439783665993
 30
0.0
 40
0.3333333333339965
100
AcDbArc
 50
0.0
 51
180.0
  0
ARC
  5
C4
330
51
100
AcDbEntity
  8
Skizziergeometrie_ISO_
  6
Continuous
 62
     7
100
AcDbCircle
 10
188.322919780923
 20
13.7313727224852
 30
0.0
 40
0.3333333333332604
100
AcDbArc
 50
240.0183606311836
 51
60.01836063118368
  0
ARC
  5
C5
330
51
100
AcDbEntity
  8
Skizziergeometrie_ISO_
  6
Continuous
 62
     7
100
AcDbCircle
 10
184.655189950303
 20
19.1539094835628
 30
0.0
 40
0.3333333333330017
100
AcDbArc
 50
0.0
 51
180.0
  0
ARC
  5
C6
330
51
100
AcDbEntity
  8
Skizziergeometrie_ISO_
  6
Continuous
 62
     7
100
AcDbCircle
 10
184.655189950303
 20
15.8473707016896
 30
0.0
 40
0.3333333333330017
100
AcDbArc
 50
180.0
 51
0.0
  0
ARC
  5
C7
330
51
100
AcDbEntity
  8
Skizziergeometrie_ISO_
  6
Continuous
 62
     7
100
AcDbCircle
 10
192.691308338763
 20
19.1539094835628
 30
0.0
 40
0.3333333333332746
100
AcDbArc
 50
240.0183606311793
 51
60.01836063118353
  0
ARC
  5
C8
330
51
100
AcDbEntity
  8
Skizziergeometrie_ISO_
  6
Continuous
 62
     7
100
AcDbCircle
 10
192.691308338763
 20
17.5006400926262
 30
0.0
 40
0.3333333333333997
100
AcDbArc
 50
270.0
 51
90.0
  0
ARC
  5
C9
330
51
100
AcDbEntity
  8
Skizziergeometrie_ISO_
  6
Continuous
 62
     7
100
AcDbCircle
 10
192.691308338763
 20
15.8473707016896
 30
0.0
 40
0.3333333333332619
100
AcDbArc
 50
299.9816393688163
 51
119.9816393688206
  0
ARC
  5
CA
102
{ACAD_REACTORS
330
DF
102
}
330
51
100
AcDbEntity
  8
0
  6
Continuous
 62
     7
100
AcDbCircle
 10
191.321855608167
 20
15.0573018186531
 30
0.0
 40
0.3333333333339965
100
AcDbArc
 50
180.0
 51
299.9816393688164
  0
ARC
  5
CB
102
{ACAD_REACTORS
330
DF
102
}
330
51
100
AcDbEntity
  8
0
  6
Continuous
 62
     7
100
AcDbCircle
 10
191.321855608167
 20
19.9439783665993
 30
0.0
 40
0.3333333333332604
100
AcDbArc
 50
60.01836063118353
 51
180.0
  0
ARC
  5
CC
102
{ACAD_REACTORS
330
DF
102
}
330
51
100
AcDbEntity
  8
0
  6
Continuous
 62
     7
100
AcDbCircle
 10
192.691308338763
 20
19.1539094835628
 30
0.0
 40
0.3333333333332746
100
AcDbArc
 50
240.0183606311793
 51
60.01835942368935
  0
ARC
  5
CD
102
{ACAD_REACTORS
330
DF
102
}
330
51
100
AcDbEntity
  8
0
  6
Continuous
 62
     7
100
AcDbCircle
 10
192.691308338763
 20
17.5006400926262
 30
0.0
 40
0.3333333333333997
100
AcDbArc
 50
270.0
 51
90.0
  0
ARC
  5
CE
102
{ACAD_REACTORS
330
DF
102
}
330
51
100
AcDbEntity
  8
0
  6
Continuous
 62
     7
100
AcDbCircle
 10
192.691308338763
 20
15.8473707016896
 30
0.0
 40
0.3333333333332619
100
AcDbArc
 50
299.9816393688163
 51
119.9816393688206
  0
ARC
  5
CF
102
{ACAD_REACTORS
330
E0
102
}
330
51
100
AcDbEntity
  8
0
  6
Continuous
 62
     7
100
AcDbCircle
 10
187.253494909038
 20
20.7526980593071
 30
0.0
 40
0.2649662124751274
100
AcDbArc
 50
30.00000000000922
 51
180.0
  0
ARC
  5
D0
102
{ACAD_REACTORS
330
E0
102
}
330
51
100
AcDbEntity
  8
0
  6
Continuous
 62
     7
100
AcDbCircle
 10
187.321862029896
 20
15.8473707016896
 30
0.0
 40
0.3333333333330017
100
AcDbArc
 50
180.0
 51
0.0
  0
ARC
  5
D1
102
{ACAD_REACTORS
330
E0
102
}
330
51
100
AcDbEntity
  8
0
  6
Continuous
 62
     7
100
AcDbCircle
 10
188.655189950303
 20
17.8548279161004
 30
0.0
 40
0.1666666666662864
100
AcDbArc
 50
210.0000000000623
 51
329.9999999999426
  0
ARC
  5
D2
102
{ACAD_REACTORS
330
E0
102
}
330
51
100
AcDbEntity
  8
0
  6
Continuous
 62
     7
100
AcDbCircle
 10
189.98851787071
 20
14.2880685085818
 30
0.0
 40
0.3333333333330017
100
AcDbArc
 50
180.0
 51
0.0
  0
ARC
  5
D3
102
{ACAD_REACTORS
330
E0
102
}
330
51
100
AcDbEntity
  8
0
  6
Continuous
 62
     7
100
AcDbCircle
 10
190.056884991568
 20
20.752698059307
 30
0.0
 40
0.2649662124759971
100
AcDbArc
 50
0.0
 51
149.9999999999752
  0
ARC
  5
D4
102
{ACAD_REACTORS
330
E1
102
}
330
51
100
AcDbEntity
  8
0
  6
Continuous
 62
     7
100
AcDbCircle
 10
185.988524292439
 20
19.9439783665993
 30
0.0
 40
0.3333333333339965
100
AcDbArc
 50
0.0
 51
180.0
  0
ARC
  5
D5
102
{ACAD_REACTORS
330
E1
102
}
330
51
100
AcDbEntity
  8
0
  6
Continuous
 62
     7
100
AcDbCircle
 10
186.321859827834
 20
15.2706619304882
 30
0.0
 40
0.66666886872801
100
AcDbArc
 50
180.0
 51
240.0183606311481
  0
ARC
  5
D6
102
{ACAD_REACTORS
330
E1
102
}
330
51
100
AcDbEntity
  8
0
  6
Continuous
 62
     7
100
AcDbCircle
 10
188.322919780923
 20
13.7313727224852
 30
0.0
 40
0.3333333333332604
100
AcDbArc
 50
240.0183606311836
 51
60.01836063118368
  0
ARC
  5
D7
102
{ACAD_REACTORS
330
E2
102
}
330
51
100
AcDbEntity
  8
0
  6
Continuous
 62
     7
100
AcDbCircle
 10
184.655189950303
 20
15.8473707016896
 30
0.0
 40
0.3333333333330017
100
AcDbArc
 50
180.0
 51
0.0
  0
ARC
  5
D8
102
{ACAD_REACTORS
330
E2
102
}
330
51
100
AcDbEntity
  8
0
  6
Continuous
 62
     7
100
AcDbCircle
 10
184.655189950303
 20
19.1539094835628
 30
0.0
 40
0.3333333333330017
100
AcDbArc
 50
0.0
 51
180.0
  0
MTEXT
  5
DA
330
51
100
AcDbEntity
  8
Symbole_ISO_
 62
     7
100
AcDbMText
 10
39.980189950303
 20
21.2506400926262
 30
0.0
 40
3.49999994039535
 41
0.0
 71
     5
 72
     1
  1
04.01.2007
  7
CONVERTER_11
 73
     1
 44
0.75727272727273
  0
MTEXT
  5
DC
330
51
100
AcDbEntity
  8
Symbole_ISO_
 62
     7
100
AcDbMText
 10
168.655189950303
 20
22.5006400926262
 30
0.0
 40
2.5
 41
0.0
 71
     5
 72
     1
  1
Scale
  7
CONVERTER_12
 73
     1
 44
0.75727272727273
  0
MTEXT
  5
DD
330
51
100
AcDbEntity
  8
Symbole_ISO_
 62
     7
100
AcDbMText
 10
20.980189950303
 20
13.7506400926262
 30
0.0
 40
2.5
 41
0.0
 71
     4
 72
     1
  1
Sign.
  7
CONVERTER_12
 73
     1
 44
0.75727272727273
  0
MTEXT
  5
DE
330
51
100
AcDbEntity
  8
Symbole_ISO_
 62
     7
100
AcDbMText
 10
20.980189950303
 20
21.2506400926262
 30
0.0
 40
2.5
 41
0.0
 71
     4
 72
     1
  1
Date
  7
CONVERTER_12
 73
     1
 44
0.75727272727273
  0
HATCH
  5
DF
330
51
100
AcDbEntity
  8
Schraffur
  6
Continuous
 62
     7
100
AcDbHatch
 10
0.0
 20
0.0
 30
0.0
210
0.0
220
0.0
230
1.0
  2
SOLID
 70
     1
 71
     1
 91
        1
 92
        1
 93
       14
 72
     2
 10
192.691308338763
 20
19.1539094835628
 40
0.3333333333332746
 50
299.9816405763107
 51
479.9816393688208
 73
     0
 72
     1
 10
192.5247341876
 20
18.8651809548799
 11
191.6551889415
 21
19.3668416737836
 72
     1
 10
191.6551889415
 20
19.3668416737836
 11
191.6551889415
 21
17.8339734259596
 72
     1
 10
191.6551889415
 20
17.8339734259596
 11
192.691308338763
 21
17.8339734259596
 72
     2
 10
192.691308338763
 20
17.5006400926262
 40
0.3333333333333997
 50
270.0
 51
450.0
 73
     0
 72
     1
 10
192.691308338763
 20
17.1673067592928
 11
191.6551889415
 21
17.1673067592928
 72
     1
 10
191.6551889415
 20
17.1673067592928
 11
191.6551889415
 21
15.6344385114688
 72
     1
 10
191.6551889415
 20
15.6344385114688
 11
192.5247341876
 21
16.1360992303725
 72
     2
 10
192.691308338763
 20
15.8473707016896
 40
0.3333333333332619
 50
240.0183606311795
 51
420.0183606311837
 73
     0
 72
     1
 10
192.857882489926
 20
15.5586421730067
 11
191.48842975933
 21
14.7685732899702
 72
     2
 10
191.321855608167
 20
15.0573018186531
 40
0.3333333333339965
 50
60.01836063118353
 51
180.0
 73
     0
 72
     1
 10
190.988522274833
 20
15.0573018186531
 11
190.988522274833
 21
19.9439783665993
 72
     2
 10
191.321855608167
 20
19.9439783665993
 40
0.3333333333332604
 50
180.0
 51
299.9816393688164
 73
     0
 72
     1
 10
191.48842975933
 20
20.2327068952822
 11
192.857882489926
 21
19.4426380122457
 97
       14
330
A2
330
CA
330
A3
330
CB
330
A4
330
CC
330
A5
330
A6
330
A7
330
CD
330
A8
330
A9
330
AA
330
CE
 75
     0
 76
     1
 98
        1
 10
0.0
 20
0.0
  0
HATCH
  5
E0
330
51
100
AcDbEntity
  8
Schraffur
  6
Continuous
 62
     7
100
AcDbHatch
 10
0.0
 20
0.0
 30
0.0
210
0.0
220
0.0
230
1.0
  2
SOLID
 70
     1
 71
     1
 91
        1
 92
        1
 93
       13
 72
     2
 10
187.253494909038
 20
20.7526980593071
 40
0.2649662124751274
 50
30.00000000000922
 51
180.0
 73
     1
 72
     1
 10
186.988528696562
 20
20.7526980593071
 11
186.988528696563
 21
15.8473707016896
 72
     2
 10
187.321862029896
 20
15.8473707016896
 40
0.3333333333330017
 50
180.0
 51
360.0
 73
     1
 72
     1
 10
187.655195363229
 20
15.8473707016896
 11
187.655195363229
 21
19.2535360148728
 72
     1
 10
187.655195363229
 20
19.2535360148728
 11
188.510852383006
 21
17.7714945827671
 72
     2
 10
188.655189950303
 20
17.8548279161004
 40
0.1666666666662864
 50
210.0000000000623
 51
329.9999999999426
 73
     1
 72
     1
 10
188.7995275176
 20
17.7714945827671
 11
189.655184537377
 21
19.2535360148728
 72
     1
 10
189.655184537377
 20
19.2535360148728
 11
189.655184537377
 21
14.2880685085818
 72
     2
 10
189.98851787071
 20
14.2880685085818
 40
0.3333333333330017
 50
180.0
 51
360.0
 73
     1
 72
     1
 10
190.321851204044
 20
14.2880685085818
 11
190.321851204044
 21
20.752698059307
 72
     2
 10
190.056884991568
 20
20.752698059307
 40
0.2649662124759971
 50
0.0
 51
149.9999999999752
 73
     1
 72
     1
 10
189.82741752042
 20
20.8851811655447
 11
188.655189950303
 21
18.8548234560689
 72
     1
 10
188.655189950303
 20
18.8548234560689
 11
187.482962380186
 21
20.8851811655447
 97
       13
330
B1
330
D3
330
B0
330
D2
330
AF
330
AE
330
D1
330
AD
330
AC
330
D0
330
AB
330
CF
330
B2
 75
     0
 76
     1
 98
        1
 10
0.0
 20
0.0
  0
HATCH
  5
E1
330
51
100
AcDbEntity
  8
Schraffur
  6
Continuous
 62
     7
100
AcDbHatch
 10
0.0
 20
0.0
 30
0.0
210
0.0
220
0.0
230
1.0
  2
SOLID
 70
     1
 71
     1
 91
        1
 92
        1
 93
        7
 72
     1
 10
186.321857625773
 20
15.270660658657
 11
186.321857625773
 21
19.9439783665993
 72
     2
 10
185.988524292439
 20
19.9439783665993
 40
0.3333333333339965
 50
0.0
 51
180.0
 73
     1
 72
     1
 10
185.655190959106
 20
19.9439783665993
 11
185.655190959106
 21
15.2706619304882
 72
     2
 10
186.321859827834
 20
15.2706619304882
 40
0.66666886872801
 50
180.0
 51
240.0183606311481
 73
     1
 72
     1
 10
185.988710425088
 20
14.6932029657285
 11
188.15634562976
 21
13.4426441938023
 72
     2
 10
188.322919780923
 20
13.7313727224852
 40
0.3333333333332604
 50
240.0183606311836
 51
420.0183606311837
 73
     1
 72
     1
 10
188.489493932086
 20
14.0201012511681
 11
186.321857625773
 21
15.270660658657
 97
        7
330
D6
330
B5
330
D5
330
B4
330
D4
330
B3
330
B6
 75
     0
 76
     1
 98
        1
 10
0.0
 20
0.0
  0
HATCH
  5
E2
330
51
100
AcDbEntity
  8
Schraffur
  6
Continuous
 62
     7
100
AcDbHatch
 10
0.0
 20
0.0
 30
0.0
210
0.0
220
0.0
230
1.0
  2
SOLID
 70
     1
 71
     1
 91
        1
 92
        1
 93
        4
 72
     1
 10
184.988523283636
 20
19.1539094835628
 11
184.988523283636
 21
15.8473707016896
 72
     2
 10
184.655189950303
 20
15.8473707016896
 40
0.3333333333330017
 50
0.0
 51
180.0
 73
     0
 72
     1
 10
184.32185661697
 20
15.8473707016896
 11
184.32185661697
 21
19.1539094835628
 72
     2
 10
184.655189950303
 20
19.1539094835628
 40
0.3333333333330017
 50
180.0
 51
360.0
 73
     0
 97
        4
330
B7
330
D7
330
B8
330
D8
 75
     0
 76
     1
 98
        1
 10
0.0
 20
0.0
  0
ENDBLK
  5
53
330
51
100
AcDbEntity
  8
0
100
AcDbBlockEnd
  0
BLOCK
  5
55
330
54
100
AcDbEntity
  8
0
100
AcDbBlockBegin
  2
Ränder_Ilme_Rahmen_A4_quer
 70
     0
 10
0.0
 20
0.0
 30
0.0
  3
Ränder_Ilme_Rahmen_A4_quer
  1

  0
LINE
  5
E3
330
54
100
AcDbEntity
  8
Skizziergeometrie_ISO_
  6
Continuous
 62
     7
100
AcDbLine
 10
287.0
 20
190.0
 30
0.0
 11
287.0
 21
10.0
 31
0.0
  0
LINE
  5
E4
330
54
100
AcDbEntity
  8
Skizziergeometrie_ISO_
  6
Continuous
 62
     7
100
AcDbLine
 10
148.5
 20
210.0
 30
0.0
 11
148.5
 21
196.0
 31
0.0
  0
LINE
  5
E5
330
54
100
AcDbEntity
  8
Skizziergeometrie_ISO_
  6
Continuous
 62
     7
100
AcDbLine
 10
9.99999999999998
 20
9.99999999999995
 30
0.0
 11
287.0
 21
10.0
 31
0.0
  0
LINE
  5
E6
330
54
100
AcDbEntity
  8
Skizziergeometrie_ISO_
  6
Continuous
 62
     7
100
AcDbLine
 10
10.0
 20
190.0
 30
0.0
 11
287.0
 21
190.0
 31
0.0
  0
LINE
  5
E7
330
54
100
AcDbEntity
  8
Skizziergeometrie_ISO_
  6
Continuous
 62
     7
100
AcDbLine
 10
9.99999999999998
 20
9.99999999999995
 30
0.0
 11
10.0
 21
190.0
 31
0.0
  0
MTEXT
  5
E8
330
54
100
AcDbEntity
  8
Symbole_ISO_
 62
     7
100
AcDbMText
 10
148.5
 20
196.0
 30
0.0
 40
3.5
 41
0.0
 71
     2
 72
     1
  1
Diritti riservati     All rights reserved
  7
CONVERTER_12
 73
     1
 44
0.75727272727273
  0
ENDBLK
  5
56
330
54
100
AcDbEntity
  8
0
100
AcDbBlockEnd
  0
BLOCK
  5
2E1
330
2DA
100
AcDbEntity
  8
0
100
AcDbBlockBegin
  2
*D3
 70
     1
 10
0.0
 20
0.0
 30
0.0
  3
*D3
  1

  0
LINE
  5
2DB
330
2DA
100
AcDbEntity
  8
Bemaßungen_TC_020513_DIN_
  6
Continuous
 62
     7
100
AcDbLine
 10
234.7651392030742
 20
230.3802814831355
 30
0.0
 11
234.7651392030742
 21
206.8962814831355
 31
0.0
  0
LINE
  5
2DC
330
2DA
100
AcDbEntity
  8
Bemaßungen_TC_020513_DIN_
  6
Continuous
 62
     7
100
AcDbLine
 10
252.7651392030742
 20
206.8962814831355
 30
0.0
 11
230.7651392030742
 21
206.8962814831355
 31
0.0
  0
LINE
  5
2DD
330
2DA
100
AcDbEntity
  8
Bemaßungen_TC_020513_DIN_
  6
Continuous
 62
     7
100
AcDbLine
 10
252.7651392030742
 20
230.3802814831355
 30
0.0
 11
230.7651392030742
 21
230.3802814831355
 31
0.0
  0
SOLID
  5
2DE
330
2DA
100
AcDbEntity
  8
Bemaßungen_TC_020513_DIN_
 62
     7
100
AcDbTrace
 10
235.4234016910112
 20
225.3802814831355
 30
0.0
 11
234.1068767151372
 21
225.3802814831355
 31
0.0
 12
234.7651392030742
 22
230.3802814831355
 32
0.0
 13
234.7651392030742
 23
230.3802814831355
 33
0.0
  0
SOLID
  5
2DF
330
2DA
100
AcDbEntity
  8
Bemaßungen_TC_020513_DIN_
 62
     7
100
AcDbTrace
 10
234.1068767151372
 20
211.8962814831355
 30
0.0
 11
235.4234016910112
 21
211.8962814831355
 31
0.0
 12
234.7651392030742
 22
206.8962814831355
 32
0.0
 13
234.7651392030742
 23
206.8962814831355
 33
0.0
  0
MTEXT
  5
2E0
330
2DA
100
AcDbEntity
  8
Bemaßungen_TC_020513_DIN_
 62
     7
100
AcDbMText
 10
229.3219167070957
 20
205.9967239569873
 30
0.0
 40
7.0
 41
0.0
 71
     7
 72
     1
  1
NPT 1/2"
  7
CONVERTER_13
 11
0.0
 21
1.0
 31
0.0
 73
     1
 44
0.45454545454545
  0
ENDBLK
  5
2E2
330
2DA
100
AcDbEntity
  8
0
100
AcDbBlockEnd
  0
BLOCK
  5
2EC
330
2E5
100
AcDbEntity
  8
0
100
AcDbBlockBegin
  2
*D4
 70
     1
 10
0.0
 20
0.0
 30
0.0
  3
*D4
  1

  0
LINE
  5
2E6
330
2E5
100
AcDbEntity
  8
Bemaßungen_TC_020513_DIN_
  6
Continuous
 62
     7
100
AcDbLine
 10
379.2651392030742
 20
230.3802814831355
 30
0.0
 11
379.2651392030742
 21
206.8962814831355
 31
0.0
  0
LINE
  5
2E7
330
2E5
100
AcDbEntity
  8
Bemaßungen_TC_020513_DIN_
  6
Continuous
 62
     7
100
AcDbLine
 10
349.2651392030741
 20
206.8962814831355
 30
0.0
 11
383.2651392030742
 21
206.8962814831355
 31
0.0
  0
LINE
  5
2E8
330
2E5
100
AcDbEntity
  8
Bemaßungen_TC_020513_DIN_
  6
Continuous
 62
     7
100
AcDbLine
 10
349.2651392030741
 20
230.3802814831355
 30
0.0
 11
383.2651392030742
 21
230.3802814831355
 31
0.0
  0
SOLID
  5
2E9
330
2E5
100
AcDbEntity
  8
Bemaßungen_TC_020513_DIN_
 62
     7
100
AcDbTrace
 10
379.9234016910112
 20
225.3802814831355
 30
0.0
 11
378.6068767151373
 21
225.3802814831355
 31
0.0
 12
379.2651392030742
 22
230.3802814831355
 32
0.0
 13
379.2651392030742
 23
230.3802814831355
 33
0.0
  0
SOLID
  5
2EA
330
2E5
100
AcDbEntity
  8
Bemaßungen_TC_020513_DIN_
 62
     7
100
AcDbTrace
 10
378.6068767151373
 20
211.8962814831355
 30
0.0
 11
379.9234016910112
 21
211.8962814831355
 31
0.0
 12
379.2651392030742
 22
206.8962814831355
 32
0.0
 13
379.2651392030742
 23
206.8962814831355
 33
0.0
  0
MTEXT
  5
2EB
330
2E5
100
AcDbEntity
  8
Bemaßungen_TC_020513_DIN_
 62
     7
100
AcDbMText
 10
373.8219167070956
 20
205.9967239569873
 30
0.0
 40
7.0
 41
0.0
 71
     7
 72
     1
  1
NPT 1/2"
  7
CONVERTER_13
 11
0.0
 21
1.0
 31
0.0
 73
     1
 44
0.45454545454545
  0
ENDBLK
  5
2ED
330
2E5
100
AcDbEntity
  8
0
100
AcDbBlockEnd
  0
BLOCK
  5
2F7
330
2F0
100
AcDbEntity
  8
0
100
AcDbBlockBegin
  2
*D5
 70
     1
 10
0.0
 20
0.0
 30
0.0
  3
*D5
  1

  0
LINE
  5
2F1
330
2F0
100
AcDbEntity
  8
Bemaßungen_TC_020513_DIN_
  6
Continuous
 62
     7
100
AcDbLine
 10
490.2341393427153
 20
295.0582814831353
 30
0.0
 11
432.2341393427153
 21
295.0582814831353
 31
0.0
  0
LINE
  5
2F2
330
2F0
100
AcDbEntity
  8
Bemaßungen_TC_020513_DIN_
  6
Continuous
 62
     7
100
AcDbLine
 10
490.2341393427153
 20
253.0582814831353
 30
0.0
 11
490.2341393427153
 21
299.0582814831353
 31
0.0
  0
LINE
  5
2F3
330
2F0
100
AcDbEntity
  8
Bemaßungen_TC_020513_DIN_
  6
Continuous
 62
     7
100
AcDbLine
 10
432.2341393427153
 20
253.0582814831353
 30
0.0
 11
432.2341393427153
 21
299.0582814831353
 31
0.0
  0
SOLID
  5
2F4
330
2F0
100
AcDbEntity
  8
Bemaßungen_TC_020513_DIN_
 62
     7
100
AcDbTrace
 10
437.2341393427153
 20
295.7165439710723
 30
0.0
 11
437.2341393427153
 21
294.4000189951984
 31
0.0
 12
432.2341393427153
 22
295.0582814831353
 32
0.0
 13
432.2341393427153
 23
295.0582814831353
 33
0.0
  0
SOLID
  5
2F5
330
2F0
100
AcDbEntity
  8
Bemaßungen_TC_020513_DIN_
 62
     7
100
AcDbTrace
 10
485.2341393427153
 20
294.4000189951984
 30
0.0
 11
485.2341393427153
 21
295.7165439710723
 31
0.0
 12
490.2341393427153
 22
295.0582814831353
 32
0.0
 13
490.2341393427153
 23
295.0582814831353
 33
0.0
  0
MTEXT
  5
2F6
330
2F0
100
AcDbEntity
  8
Bemaßungen_TC_020513_DIN_
 62
     7
100
AcDbMText
 10
456.213334431392
 20
300.306303311239
 30
0.0
 40
7.0
 41
0.0
 71
     7
 72
     1
  1
58
  7
CONVERTER_13
 11
0.9999999999970619
 21
2.424068405545306E-6
 31
0.0
 73
     1
 44
0.45454545454545
  0
ENDBLK
  5
2F8
330
2F0
100
AcDbEntity
  8
0
100
AcDbBlockEnd
  0
BLOCK
  5
302
330
2FB
100
AcDbEntity
  8
0
100
AcDbBlockBegin
  2
*D6
 70
     1
 10
0.0
 20
0.0
 30
0.0
  3
*D6
  1

  0
LINE
  5
2FC
330
2FB
100
AcDbEntity
  8
Bemaßungen_TC_020513_DIN_
  6
Continuous
 62
     7
100
AcDbLine
 10
542.2341393427054
 20
260.5582814831352
 30
0.0
 11
542.2341393427054
 21
203.5582814831352
 31
0.0
  0
LINE
  5
2FD
330
2FB
100
AcDbEntity
  8
Bemaßungen_TC_020513_DIN_
  6
Continuous
 62
     7
100
AcDbLine
 10
479.2341393427084
 20
260.5582814831352
 30
0.0
 11
546.2341393427054
 21
260.5582814831352
 31
0.0
  0
LINE
  5
2FE
330
2FB
100
AcDbEntity
  8
Bemaßungen_TC_020513_DIN_
  6
Continuous
 62
     7
100
AcDbLine
 10
488.2341393427051
 20
203.5582814831352
 30
0.0
 11
546.2341393427054
 21
203.5582814831352
 31
0.0
  0
SOLID
  5
2FF
330
2FB
100
AcDbEntity
  8
Bemaßungen_TC_020513_DIN_
 62
     7
100
AcDbTrace
 10
541.5758768547684
 20
208.5582814831352
 30
0.0
 11
542.8924018306424
 21
208.5582814831352
 31
0.0
 12
542.2341393427054
 22
203.5582814831352
 32
0.0
 13
542.2341393427054
 23
203.5582814831352
 33
0.0
  0
SOLID
  5
300
330
2FB
100
AcDbEntity
  8
Bemaßungen_TC_020513_DIN_
 62
     7
100
AcDbTrace
 10
542.8924018306424
 20
255.5582814831352
 30
0.0
 11
541.5758768547684
 21
255.5582814831352
 31
0.0
 12
542.2341393427054
 22
260.5582814831352
 32
0.0
 13
542.2341393427054
 23
260.5582814831352
 33
0.0
  0
MTEXT
  5
301
330
2FB
100
AcDbEntity
  8
Bemaßungen_TC_020513_DIN_
 62
     7
100
AcDbMText
 10
537.014766900686
 20
227.044638918333
 30
0.0
 40
7.0
 41
0.0
 71
     7
 72
     1
  1
57
  7
CONVERTER_13
 11
0.0
 21
1.0
 31
0.0
 73
     1
 44
0.45454545454545
  0
ENDBLK
  5
303
330
2FB
100
AcDbEntity
  8
0
100
AcDbBlockEnd
  0
BLOCK
  5
30D
330
306
100
AcDbEntity
  8
0
100
AcDbBlockBegin
  2
*D7
 70
     1
 10
0.0
 20
0.0
 30
0.0
  3
*D7
  1

  0
LINE
  5
307
330
306
100
AcDbEntity
  8
Bemaßungen_TC_020513_DIN_
  6
Continuous
 62
     7
100
AcDbLine
 10
500.3105736981331
 20
217.5582814831356
 30
0.0
 11
500.3105736981331
 21
187.116535234841
 31
0.0
  0
LINE
  5
308
330
306
100
AcDbEntity
  8
Bemaßungen_TC_020513_DIN_
  6
Continuous
 62
     7
100
AcDbLine
 10
488.2341393427051
 20
207.5582814831356
 30
0.0
 11
504.3105736981331
 21
207.5582814831356
 31
0.0
  0
LINE
  5
309
330
306
100
AcDbEntity
  8
Bemaßungen_TC_020513_DIN_
  6
Continuous
 62
     7
100
AcDbLine
 10
488.2341393427051
 20
203.5582814831356
 30
0.0
 11
504.3105736981331
 21
203.5582814831356
 31
0.0
  0
SOLID
  5
30A
330
306
100
AcDbEntity
  8
Bemaßungen_TC_020513_DIN_
 62
     7
100
AcDbTrace
 10
500.96883618607
 20
198.5582814831356
 30
0.0
 11
499.6523112101961
 21
198.5582814831356
 31
0.0
 12
500.3105736981331
 22
203.5582814831356
 32
0.0
 13
500.3105736981331
 23
203.5582814831356
 33
0.0
  0
SOLID
  5
30B
330
306
100
AcDbEntity
  8
Bemaßungen_TC_020513_DIN_
 62
     7
100
AcDbTrace
 10
499.6523112101961
 20
212.5582814831356
 30
0.0
 11
500.96883618607
 21
212.5582814831356
 31
0.0
 12
500.3105736981331
 22
207.5582814831356
 32
0.0
 13
500.3105736981331
 23
207.5582814831356
 33
0.0
  0
MTEXT
  5
30C
330
306
100
AcDbEntity
  8
Bemaßungen_TC_020513_DIN_
 62
     7
100
AcDbMText
 10
495.210573698133
 20
187.116535234841
 30
0.0
 40
7.0
 41
0.0
 71
     7
 72
     1
  1
4
  7
CONVERTER_13
 11
0.0
 21
1.0
 31
0.0
 73
     1
 44
0.45454545454545
  0
ENDBLK
  5
30E
330
306
100
AcDbEntity
  8
0
100
AcDbBlockEnd
  0
BLOCK
  5
318
330
311
100
AcDbEntity
  8
0
100
AcDbBlockBegin
  2
*D8
 70
     1
 10
0.0
 20
0.0
 30
0.0
  3
*D8
  1

  0
LINE
  5
312
330
311
100
AcDbEntity
  8
Bemaßungen_TC_020513_DIN_
  6
Continuous
 62
     7
100
AcDbLine
 10
487.2341393427054
 20
161.5582814831353
 30
0.0
 11
435.2341393427054
 21
161.5582814831353
 31
0.0
  0
LINE
  5
313
330
311
100
AcDbEntity
  8
Bemaßungen_TC_020513_DIN_
  6
Continuous
 62
     7
100
AcDbLine
 10
487.2341393427054
 20
203.5582814831353
 30
0.0
 11
487.2341393427054
 21
157.5582814831353
 31
0.0
  0
LINE
  5
314
330
311
100
AcDbEntity
  8
Bemaßungen_TC_020513_DIN_
  6
Continuous
 62
     7
100
AcDbLine
 10
435.2341393427054
 20
203.5582814831353
 30
0.0
 11
435.2341393427054
 21
157.5582814831353
 31
0.0
  0
SOLID
  5
315
330
311
100
AcDbEntity
  8
Bemaßungen_TC_020513_DIN_
 62
     7
100
AcDbTrace
 10
440.2341393427054
 20
162.2165439710723
 30
0.0
 11
440.2341393427054
 21
160.9000189951983
 31
0.0
 12
435.2341393427054
 22
161.5582814831353
 32
0.0
 13
435.2341393427054
 23
161.5582814831353
 33
0.0
  0
SOLID
  5
316
330
311
100
AcDbEntity
  8
Bemaßungen_TC_020513_DIN_
 62
     7
100
AcDbTrace
 10
482.2341393427054
 20
160.9000189951983
 30
0.0
 11
482.2341393427054
 21
162.2165439710723
 31
0.0
 12
487.2341393427054
 22
161.5582814831353
 32
0.0
 13
487.2341393427054
 23
161.5582814831353
 33
0.0
  0
MTEXT
  5
317
330
311
100
AcDbEntity
  8
Bemaßungen_TC_020513_DIN_
 62
     7
100
AcDbMText
 10
456.256308510509
 20
166.806303311239
 30
0.0
 40
7.0
 41
0.0
 71
     7
 72
     1
  1
52
  7
CONVERTER_13
 11
0.9999999999970619
 21
2.424068405545306E-6
 31
0.0
 73
     1
 44
0.45454545454545
  0
ENDBLK
  5
319
330
311
100
AcDbEntity
  8
0
100
AcDbBlockEnd
  0
BLOCK
  5
323
330
31C
100
AcDbEntity
  8
0
100
AcDbBlockBegin
  2
*D9
 70
     1
 10
0.0
 20
0.0
 30
0.0
  3
*D9
  1

  0
LINE
  5
31D
330
31C
100
AcDbEntity
  8
Bemaßungen_TC_020513_DIN_
  6
Continuous
 62
     7
100
AcDbLine
 10
481.2341393427068
 20
178.5582814831353
 30
0.0
 11
441.2341393427068
 21
178.5582814831353
 31
0.0
  0
LINE
  5
31E
330
31C
100
AcDbEntity
  8
Bemaßungen_TC_020513_DIN_
  6
Continuous
 62
     7
100
AcDbLine
 10
481.2341393427068
 20
196.5582814831353
 30
0.0
 11
481.2341393427068
 21
174.5582814831353
 31
0.0
  0
LINE
  5
31F
330
31C
100
AcDbEntity
  8
Bemaßungen_TC_020513_DIN_
  6
Continuous
 62
     7
100
AcDbLine
 10
441.2341393427068
 20
196.5582814831353
 30
0.0
 11
441.2341393427068
 21
174.5582814831353
 31
0.0
  0
SOLID
  5
320
330
31C
100
AcDbEntity
  8
Bemaßungen_TC_020513_DIN_
 62
     7
100
AcDbTrace
 10
446.2341393427068
 20
179.2165439710723
 30
0.0
 11
446.2341393427068
 21
177.9000189951983
 31
0.0
 12
441.2341393427068
 22
178.5582814831353
 32
0.0
 13
441.2341393427068
 23
178.5582814831353
 33
0.0
  0
SOLID
  5
321
330
31C
100
AcDbEntity
  8
Bemaßungen_TC_020513_DIN_
 62
     7
100
AcDbTrace
 10
476.2341393427068
 20
177.9000189951983
 30
0.0
 11
476.2341393427068
 21
179.2165439710723
 31
0.0
 12
481.2341393427068
 22
178.5582814831353
 32
0.0
 13
481.2341393427068
 23
178.5582814831353
 33
0.0
  0
MTEXT
  5
322
330
31C
100
AcDbEntity
  8
Bemaßungen_TC_020513_DIN_
 62
     7
100
AcDbMText
 10
456.091574540524
 20
183.806303311239
 30
0.0
 40
7.0
 41
0.0
 71
     7
 72
     1
  1
40
  7
CONVERTER_13
 11
0.9999999999970619
 21
2.424068405545306E-6
 31
0.0
 73
     1
 44
0.45454545454545
  0
ENDBLK
  5
324
330
31C
100
AcDbEntity
  8
0
100
AcDbBlockEnd
  0
BLOCK
  5
32E
330
327
100
AcDbEntity
  8
0
100
AcDbBlockBegin
  2
*D10
 70
     1
 10
0.0
 20
0.0
 30
0.0
  3
*D10
  1

  0
LINE
  5
328
330
327
100
AcDbEntity
  8
Bemaßungen_TC_020513_DIN_
  6
Continuous
 62
     7
100
AcDbLine
 10
347.765139203074
 20
161.5582814831349
 30
0.0
 11
254.2651392030739
 21
161.5582814831349
 31
0.0
  0
LINE
  5
329
330
327
100
AcDbEntity
  8
Bemaßungen_TC_020513_DIN_
  6
Continuous
 62
     7
100
AcDbLine
 10
347.765139203074
 20
203.5582814831349
 30
0.0
 11
347.765139203074
 21
157.5582814831349
 31
0.0
  0
LINE
  5
32A
330
327
100
AcDbEntity
  8
Bemaßungen_TC_020513_DIN_
  6
Continuous
 62
     7
100
AcDbLine
 10
254.2651392030739
 20
203.5582814831349
 30
0.0
 11
254.2651392030739
 21
157.5582814831349
 31
0.0
  0
SOLID
  5
32B
330
327
100
AcDbEntity
  8
Bemaßungen_TC_020513_DIN_
 62
     7
100
AcDbTrace
 10
259.2651392030739
 20
162.2165439710719
 30
0.0
 11
259.2651392030739
 21
160.9000189951979
 31
0.0
 12
254.2651392030739
 22
161.5582814831349
 32
0.0
 13
254.2651392030739
 23
161.5582814831349
 33
0.0
  0
SOLID
  5
32C
330
327
100
AcDbEntity
  8
Bemaßungen_TC_020513_DIN_
 62
     7
100
AcDbTrace
 10
342.765139203074
 20
160.9000189951979
 30
0.0
 11
342.765139203074
 21
162.2165439710719
 31
0.0
 12
347.765139203074
 22
161.5582814831349
 32
0.0
 13
347.765139203074
 23
161.5582814831349
 33
0.0
  0
MTEXT
  5
32D
330
327
100
AcDbEntity
  8
Bemaßungen_TC_020513_DIN_
 62
     7
100
AcDbMText
 10
291.897472081655
 20
168.071651196641
 30
0.0
 40
7.0
 41
0.0
 71
     7
 72
     1
  1
93,5
  7
CONVERTER_13
 11
0.9999999999970619
 21
2.424068405545306E-6
 31
0.0
 73
     1
 44
0.45454545454545
  0
ENDBLK
  5
32F
330
327
100
AcDbEntity
  8
0
100
AcDbBlockEnd
  0
BLOCK
  5
339
330
332
100
AcDbEntity
  8
0
100
AcDbBlockBegin
  2
*D11
 70
     1
 10
0.0
 20
0.0
 30
0.0
  3
*D11
  1

  0
LINE
  5
333
330
332
100
AcDbEntity
  8
Bemaßungen_TC_020513_DIN_
  6
Continuous
 62
     7
100
AcDbLine
 10
342.0151392030742
 20
178.5582814831353
 30
0.0
 11
260.0151392030742
 21
178.5582814831353
 31
0.0
  0
LINE
  5
334
330
332
100
AcDbEntity
  8
Bemaßungen_TC_020513_DIN_
  6
Continuous
 62
     7
100
AcDbLine
 10
342.0151392030742
 20
196.5582814831353
 30
0.0
 11
342.0151392030742
 21
174.5582814831353
 31
0.0
  0
LINE
  5
335
330
332
100
AcDbEntity
  8
Bemaßungen_TC_020513_DIN_
  6
Continuous
 62
     7
100
AcDbLine
 10
260.0151392030742
 20
196.5582814831353
 30
0.0
 11
260.0151392030742
 21
174.5582814831353
 31
0.0
  0
SOLID
  5
336
330
332
100
AcDbEntity
  8
Bemaßungen_TC_020513_DIN_
 62
     7
100
AcDbTrace
 10
265.0151392030742
 20
179.2165439710723
 30
0.0
 11
265.0151392030742
 21
177.9000189951983
 31
0.0
 12
260.0151392030742
 22
178.5582814831353
 32
0.0
 13
260.0151392030742
 23
178.5582814831353
 33
0.0
  0
SOLID
  5
337
330
332
100
AcDbEntity
  8
Bemaßungen_TC_020513_DIN_
 62
     7
100
AcDbTrace
 10
337.0151392030742
 20
177.9000189951983
 30
0.0
 11
337.0151392030742
 21
179.2165439710723
 31
0.0
 12
342.0151392030742
 22
178.5582814831353
 32
0.0
 13
342.0151392030742
 23
178.5582814831353
 33
0.0
  0
MTEXT
  5
338
330
332
100
AcDbEntity
  8
Bemaßungen_TC_020513_DIN_
 62
     7
100
AcDbMText
 10
296.032533473197
 20
183.806303311239
 30
0.0
 40
7.0
 41
0.0
 71
     7
 72
     1
  1
82
  7
CONVERTER_13
 11
0.9999999999970619
 21
2.424068405545306E-6
 31
0.0
 73
     1
 44
0.45454545454545
  0
ENDBLK
  5
33A
330
332
100
AcDbEntity
  8
0
100
AcDbBlockEnd
  0
BLOCK
  5
344
330
33D
100
AcDbEntity
  8
0
100
AcDbBlockBegin
  2
*D12
 70
     1
 10
0.0
 20
0.0
 30
0.0
  3
*D12
  1

  0
LINE
  5
33E
330
33D
100
AcDbEntity
  8
Bemaßungen_TC_020513_DIN_
  6
Continuous
 62
     7
100
AcDbLine
 10
365.7673934408311
 20
295.0582814831349
 30
0.0
 11
236.2628849653171
 21
295.0582814831349
 31
0.0
  0
LINE
  5
33F
330
33D
100
AcDbEntity
  8
Bemaßungen_TC_020513_DIN_
  6
Continuous
 62
     7
100
AcDbLine
 10
365.7673934408311
 20
253.0582814831349
 30
0.0
 11
365.7673934408311
 21
299.0582814831349
 31
0.0
  0
LINE
  5
340
330
33D
100
AcDbEntity
  8
Bemaßungen_TC_020513_DIN_
  6
Continuous
 62
     7
100
AcDbLine
 10
236.2628849653171
 20
253.0582814831349
 30
0.0
 11
236.2628849653171
 21
299.0582814831349
 31
0.0
  0
SOLID
  5
341
330
33D
100
AcDbEntity
  8
Bemaßungen_TC_020513_DIN_
 62
     7
100
AcDbTrace
 10
241.2628849653171
 20
295.7165439710719
 30
0.0
 11
241.2628849653171
 21
294.400018995198
 31
0.0
 12
236.2628849653171
 22
295.0582814831349
 32
0.0
 13
236.2628849653171
 23
295.0582814831349
 33
0.0
  0
SOLID
  5
342
330
33D
100
AcDbEntity
  8
Bemaßungen_TC_020513_DIN_
 62
     7
100
AcDbTrace
 10
360.7673934408311
 20
294.400018995198
 30
0.0
 11
360.7673934408311
 21
295.7165439710719
 31
0.0
 12
365.7673934408311
 22
295.0582814831349
 32
0.0
 13
365.7673934408311
 23
295.0582814831349
 33
0.0
  0
MTEXT
  5
343
330
33D
100
AcDbEntity
  8
Bemaßungen_TC_020513_DIN_
 62
     7
100
AcDbMText
 10
289.5076357924329
 20
301.571651196641
 30
0.0
 40
7.0
 41
0.0
 71
     7
 72
     1
  1
129,5
  7
CONVERTER_13
 11
0.9999999999970619
 21
2.424068405545306E-6
 31
0.0
 73
     1
 44
0.45454545454545
  0
ENDBLK
  5
345
330
33D
100
AcDbEntity
  8
0
100
AcDbBlockEnd
  0
ENDSEC
  0
SECTION
  2
ENTITIES
  0
INSERT
  5
79
330
1F
100
AcDbEntity
  8
0
100
AcDbBlockReference
  2
Schriftfelder_Ilme
 10
174.039620099394
 20
-0.0012801852525
 30
0.0
 41
2.0
 42
2.0
 43
2.0
  0
INSERT
  5
7A
330
1F
100
AcDbEntity
  8
0
100
AcDbBlockReference
  2
Ränder_Ilme_Rahmen_A4_quer
 10
0.0
 20
0.0
 30
0.0
 41
2.0
 42
2.0
 43
2.0
  0
POINT
  5
E9
330
1F
100
AcDbEntity
  8
Bemaßungen_TC_020513_DIN_
 62
     7
100
AcDbPoint
 10
254.765139203074
 20
206.896281483135
 30
0.0
  0
POINT
  5
EA
330
1F
100
AcDbEntity
  8
Bemaßungen_TC_020513_DIN_
 62
     7
100
AcDbPoint
 10
254.765139203074
 20
230.380281483135
 30
0.0
  0
POINT
  5
EB
330
1F
100
AcDbEntity
  8
Bemaßungen_TC_020513_DIN_
 62
     7
100
AcDbPoint
 10
347.265139203074
 20
206.896281483135
 30
0.0
  0
POINT
  5
EC
330
1F
100
AcDbEntity
  8
Bemaßungen_TC_020513_DIN_
 62
     7
100
AcDbPoint
 10
347.265139203074
 20
230.380281483135
 30
0.0
  0
POINT
  5
ED
330
1F
100
AcDbEntity
  8
Bemaßungen_TC_020513_DIN_
 62
     7
100
AcDbPoint
 10
490.234139342715
 20
251.058281483135
 30
0.0
  0
POINT
  5
EE
330
1F
100
AcDbEntity
  8
Bemaßungen_TC_020513_DIN_
 62
     7
100
AcDbPoint
 10
432.234139342715
 20
251.058281483135
 30
0.0
  0
POINT
  5
EF
330
1F
100
AcDbEntity
  8
Bemaßungen_TC_020513_DIN_
 62
     7
100
AcDbPoint
 10
477.234139342708
 20
260.558281483135
 30
0.0
  0
POINT
  5
F0
330
1F
100
AcDbEntity
  8
Bemaßungen_TC_020513_DIN_
 62
     7
100
AcDbPoint
 10
486.234139342705
 20
203.558281483135
 30
0.0
  0
POINT
  5
F1
330
1F
100
AcDbEntity
  8
Bemaßungen_TC_020513_DIN_
 62
     7
100
AcDbPoint
 10
486.234139342705
 20
207.558281483135
 30
0.0
  0
POINT
  5
F2
330
1F
100
AcDbEntity
  8
Bemaßungen_TC_020513_DIN_
 62
     7
100
AcDbPoint
 10
486.234139342705
 20
203.558281483135
 30
0.0
  0
POINT
  5
F3
330
1F
100
AcDbEntity
  8
Bemaßungen_TC_020513_DIN_
 62
     7
100
AcDbPoint
 10
487.234139342705
 20
205.558281483135
 30
0.0
  0
POINT
  5
F4
330
1F
100
AcDbEntity
  8
Bemaßungen_TC_020513_DIN_
 62
     7
100
AcDbPoint
 10
435.234139342705
 20
205.558281483135
 30
0.0
  0
POINT
  5
F5
330
1F
100
AcDbEntity
  8
Bemaßungen_TC_020513_DIN_
 62
     7
100
AcDbPoint
 10
481.234139342707
 20
198.558281483135
 30
0.0
  0
POINT
  5
F6
330
1F
100
AcDbEntity
  8
Bemaßungen_TC_020513_DIN_
 62
     7
100
AcDbPoint
 10
441.234139342707
 20
198.558281483135
 30
0.0
  0
POINT
  5
F7
330
1F
100
AcDbEntity
  8
Bemaßungen_TC_020513_DIN_
 62
     7
100
AcDbPoint
 10
347.765139203074
 20
205.558281483135
 30
0.0
  0
POINT
  5
F8
330
1F
100
AcDbEntity
  8
Bemaßungen_TC_020513_DIN_
 62
     7
100
AcDbPoint
 10
254.265139203074
 20
205.558281483135
 30
0.0
  0
POINT
  5
F9
330
1F
100
AcDbEntity
  8
Bemaßungen_TC_020513_DIN_
 62
     7
100
AcDbPoint
 10
342.015139203074
 20
198.558281483135
 30
0.0
  0
POINT
  5
FA
330
1F
100
AcDbEntity
  8
Bemaßungen_TC_020513_DIN_
 62
     7
100
AcDbPoint
 10
260.015139203074
 20
198.558281483135
 30
0.0
  0
POINT
  5
FB
330
1F
100
AcDbEntity
  8
Bemaßungen_TC_020513_DIN_
 62
     7
100
AcDbPoint
 10
365.767393440831
 20
251.058281483135
 30
0.0
  0
POINT
  5
FC
330
1F
100
AcDbEntity
  8
Bemaßungen_TC_020513_DIN_
 62
     7
100
AcDbPoint
 10
236.262884965317
 20
251.058281483135
 30
0.0
  0
LINE
  5
17F
330
1F
100
AcDbEntity
  8
Mittellinie_TC_020513_DIN_
  6
CHAIN
 62
     7
100
AcDbLine
 10
481.234139342707
 20
198.558281483135
 30
0.0
 11
481.234139342707
 21
212.558281483135
 31
0.0
  0
LINE
  5
180
330
1F
100
AcDbEntity
  8
Mittellinie_TC_020513_DIN_
  6
CHAIN
 62
     7
100
AcDbLine
 10
441.234139342707
 20
198.558281483135
 30
0.0
 11
441.234139342707
 21
212.558281483135
 31
0.0
  0
LINE
  5
181
330
1F
100
AcDbEntity
  8
Mittellinie_TC_020513_DIN_
  6
CHAIN
 62
     7
100
AcDbLine
 10
260.015139203074
 20
198.558281483135
 30
0.0
 11
260.015139203074
 21
212.558281483135
 31
0.0
  0
LINE
  5
182
330
1F
100
AcDbEntity
  8
Mittellinie_TC_020513_DIN_
  6
CHAIN
 62
     7
100
AcDbLine
 10
342.015139203074
 20
198.558281483135
 30
0.0
 11
342.015139203074
 21
212.558281483135
 31
0.0
  0
LINE
  5
183
330
1F
100
AcDbEntity
  8
Mittellinie_TC_020513_DIN_
  6
CHAIN
 62
     7
100
AcDbLine
 10
301.015139203074
 20
263.304997791202
 30
0.0
 11
301.015139203074
 21
198.558281483135
 31
0.0
  0
LINE
  5
184
330
1F
100
AcDbEntity
  8
Mittelpunktmarkierung_TC_020513_DIN_
  6
CHAIN
 62
     7
100
AcDbLine
 10
461.234139342705
 20
263.983836648477
 30
0.0
 11
461.234139342705
 21
198.136467492749
 31
0.0
  0
LINE
  5
185
330
1F
100
AcDbEntity
  8
Mittelpunktmarkierung_TC_020513_DIN_
  6
CHAIN
 62
     7
100
AcDbLine
 10
478.564139342705
 20
218.638281483135
 30
0.0
 11
443.904139342705
 21
218.638281483135
 31
0.0
  0
LINE
  5
186
330
1F
100
AcDbEntity
  8
Sichtbare_Kanten_TC_020513_DIN_
  6
Continuous
 62
     7
100
AcDbLine
 10
439.23413934271
 20
255.058281483135
 30
0.0
 11
439.23413934271
 21
260.558281483135
 31
0.0
  0
LINE
  5
187
330
1F
100
AcDbEntity
  8
Sichtbare_Kanten_TC_020513_DIN_
  6
Continuous
 62
     7
100
AcDbLine
 10
439.23413934271
 20
260.558281483135
 30
0.0
 11
445.234139342708
 21
260.558281483135
 31
0.0
  0
LINE
  5
188
330
1F
100
AcDbEntity
  8
Sichtbare_Kanten_TC_020513_DIN_
  6
Continuous
 62
     7
100
AcDbLine
 10
477.234139342708
 20
260.558281483135
 30
0.0
 11
445.234139342708
 21
260.558281483135
 31
0.0
  0
LINE
  5
189
330
1F
100
AcDbEntity
  8
Sichtbare_Kanten_TC_020513_DIN_
  6
Continuous
 62
     7
100
AcDbLine
 10
477.234139342708
 20
260.558281483135
 30
0.0
 11
483.23413934271
 21
260.558281483135
 31
0.0
  0
LINE
  5
18A
330
1F
100
AcDbEntity
  8
Sichtbare_Kanten_TC_020513_DIN_
  6
Continuous
 62
     7
100
AcDbLine
 10
483.23413934271
 20
255.058281483135
 30
0.0
 11
483.23413934271
 21
260.558281483135
 31
0.0
  0
LINE
  5
18B
330
1F
100
AcDbEntity
  8
Sichtbare_Kanten_TC_020513_DIN_
  6
Continuous
 62
     7
100
AcDbLine
 10
439.23413934271
 20
255.058281483135
 30
0.0
 11
445.234139342708
 21
255.058281483135
 31
0.0
  0
LINE
  5
18C
330
1F
100
AcDbEntity
  8
Sichtbare_Kanten_TC_020513_DIN_
  6
Continuous
 62
     7
100
AcDbLine
 10
477.234139342708
 20
255.058281483135
 30
0.0
 11
445.234139342708
 21
255.058281483135
 31
0.0
  0
LINE
  5
18D
330
1F
100
AcDbEntity
  8
Sichtbare_Kanten_TC_020513_DIN_
  6
Continuous
 62
     7
100
AcDbLine
 10
477.234139342708
 20
255.058281483135
 30
0.0
 11
483.23413934271
 21
255.058281483135
 31
0.0
  0
LINE
  5
18E
330
1F
100
AcDbEntity
  8
Sichtbare_Kanten_TC_020513_DIN_
  6
Continuous
 62
     7
100
AcDbLine
 10
485.484139342712
 20
274.498073620314
 30
0.0
 11
483.984139342712
 21
274.498073620314
 31
0.0
  0
LINE
  5
18F
330
1F
100
AcDbEntity
  8
Sichtbare_Kanten_TC_020513_DIN_
  6
Continuous
 62
     7
100
AcDbLine
 10
488.984139342712
 20
274.498073620314
 30
0.0
 11
487.484139342712
 21
274.498073620314
 31
0.0
  0
LINE
  5
190
330
1F
100
AcDbEntity
  8
Sichtbare_Kanten_TC_020513_DIN_
  6
Continuous
 62
     7
100
AcDbLine
 10
434.984139342713
 20
274.238281483135
 30
0.0
 11
436.984139342713
 21
274.238281483135
 31
0.0
  0
LINE
  5
191
330
1F
100
AcDbEntity
  8
Sichtbare_Kanten_TC_020513_DIN_
  6
Continuous
 62
     7
100
AcDbLine
 10
433.474139342713
 20
267.738281483135
 30
0.0
 11
433.484139342713
 21
267.738281483135
 31
0.0
  0
LINE
  5
192
330
1F
100
AcDbEntity
  8
Sichtbare_Kanten_TC_020513_DIN_
  6
Continuous
 62
     7
100
AcDbLine
 10
433.474139342713
 20
269.738281483135
 30
0.0
 11
433.484139342713
 21
269.738281483135
 31
0.0
  0
LINE
  5
193
330
1F
100
AcDbEntity
  8
Sichtbare_Kanten_TC_020513_DIN_
  6
Continuous
 62
     7
100
AcDbLine
 10
438.484139342713
 20
267.738281483135
 30
0.0
 11
438.494139342713
 21
267.738281483135
 31
0.0
  0
LINE
  5
194
330
1F
100
AcDbEntity
  8
Sichtbare_Kanten_TC_020513_DIN_
  6
Continuous
 62
     7
100
AcDbLine
 10
438.484139342713
 20
269.738281483135
 30
0.0
 11
438.494139342713
 21
269.738281483135
 31
0.0
  0
LINE
  5
195
330
1F
100
AcDbEntity
  8
Sichtbare_Kanten_TC_020513_DIN_
  6
Continuous
 62
     7
100
AcDbLine
 10
434.984139342712
 20
274.498073620314
 30
0.0
 11
433.484139342712
 21
274.498073620314
 31
0.0
  0
LINE
  5
196
330
1F
100
AcDbEntity
  8
Sichtbare_Kanten_TC_020513_DIN_
  6
Continuous
 62
     7
100
AcDbLine
 10
438.484139342712
 20
274.498073620314
 30
0.0
 11
436.984139342712
 21
274.498073620314
 31
0.0
  0
LINE
  5
197
330
1F
100
AcDbEntity
  8
Sichtbare_Kanten_TC_020513_DIN_
  6
Continuous
 62
     7
100
AcDbLine
 10
483.974139342713
 20
267.738281483135
 30
0.0
 11
483.984139342713
 21
267.738281483135
 31
0.0
  0
LINE
  5
198
330
1F
100
AcDbEntity
  8
Sichtbare_Kanten_TC_020513_DIN_
  6
Continuous
 62
     7
100
AcDbLine
 10
483.974139342713
 20
269.738281483135
 30
0.0
 11
483.984139342713
 21
269.738281483135
 31
0.0
  0
LINE
  5
199
330
1F
100
AcDbEntity
  8
Sichtbare_Kanten_TC_020513_DIN_
  6
Continuous
 62
     7
100
AcDbLine
 10
488.984139342713
 20
267.738281483135
 30
0.0
 11
488.994139342713
 21
267.738281483135
 31
0.0
  0
LINE
  5
19A
330
1F
100
AcDbEntity
  8
Sichtbare_Kanten_TC_020513_DIN_
  6
Continuous
 62
     7
100
AcDbLine
 10
488.984139342713
 20
269.738281483135
 30
0.0
 11
488.994139342713
 21
269.738281483135
 31
0.0
  0
LINE
  5
19B
330
1F
100
AcDbEntity
  8
Sichtbare_Kanten_TC_020513_DIN_
  6
Continuous
 62
     7
100
AcDbLine
 10
485.484139342713
 20
274.238281483135
 30
0.0
 11
487.484139342713
 21
274.238281483135
 31
0.0
  0
LINE
  5
19C
330
1F
100
AcDbEntity
  8
Sichtbare_Kanten_TC_020513_DIN_
  6
Continuous
 62
     7
100
AcDbLine
 10
485.484139342705
 20
239.744572984151
 30
0.0
 11
487.484139342705
 21
239.744572984151
 31
0.0
  0
LINE
  5
19D
330
1F
100
AcDbEntity
  8
Sichtbare_Kanten_TC_020513_DIN_
  6
Continuous
 62
     7
100
AcDbLine
 10
487.484139342705
 20
239.744572984151
 30
0.0
 11
487.484139342703
 21
246.815640796016
 31
0.0
  0
LINE
  5
19E
330
1F
100
AcDbEntity
  8
Sichtbare_Kanten_TC_020513_DIN_
  6
Continuous
 62
     7
100
AcDbLine
 10
485.484139342708
 20
268.865099175045
 30
0.0
 11
485.484139342709
 21
271.034048051655
 31
0.0
  0
LINE
  5
19F
330
1F
100
AcDbEntity
  8
Sichtbare_Kanten_TC_020513_DIN_
  6
Continuous
 62
     7
100
AcDbLine
 10
485.484139342709
 20
271.034048051655
 30
0.0
 11
485.484139342712
 21
274.498073620314
 31
0.0
  0
LINE
  5
1A0
330
1F
100
AcDbEntity
  8
Sichtbare_Kanten_TC_020513_DIN_
  6
Continuous
 62
     7
100
AcDbLine
 10
487.484139342709
 20
271.034048051655
 30
0.0
 11
487.484139342712
 21
274.498073620314
 31
0.0
  0
LINE
  5
1A1
330
1F
100
AcDbEntity
  8
Sichtbare_Kanten_TC_020513_DIN_
  6
Continuous
 62
     7
100
AcDbLine
 10
487.484139342708
 20
268.865099175045
 30
0.0
 11
487.484139342709
 21
271.034048051655
 31
0.0
  0
LINE
  5
1A2
330
1F
100
AcDbEntity
  8
Sichtbare_Kanten_TC_020513_DIN_
  6
Continuous
 62
     7
100
AcDbLine
 10
490.234139342715
 20
247.408281483135
 30
0.0
 11
490.234139342715
 21
254.708281483135
 31
0.0
  0
LINE
  5
1A3
330
1F
100
AcDbEntity
  8
Sichtbare_Kanten_TC_020513_DIN_
  6
Continuous
 62
     7
100
AcDbLine
 10
433.274139342713
 20
267.688281483135
 30
0.0
 11
433.274139342713
 21
269.788281483135
 31
0.0
  0
LINE
  5
1A4
330
1F
100
AcDbEntity
  8
Sichtbare_Kanten_TC_020513_DIN_
  6
Continuous
 62
     7
100
AcDbLine
 10
438.694139342713
 20
267.688281483135
 30
0.0
 11
438.694139342713
 21
269.788281483135
 31
0.0
  0
LINE
  5
1A5
330
1F
100
AcDbEntity
  8
Sichtbare_Kanten_TC_020513_DIN_
  6
Continuous
 62
     7
100
AcDbLine
 10
438.494139342713
 20
267.488281483135
 30
0.0
 11
438.494139342713
 21
269.988281483135
 31
0.0
  0
LINE
  5
1A6
330
1F
100
AcDbEntity
  8
Sichtbare_Kanten_TC_020513_DIN_
  6
Continuous
 62
     7
100
AcDbLine
 10
433.474139342713
 20
267.488281483135
 30
0.0
 11
433.474139342713
 21
269.988281483135
 31
0.0
  0
LINE
  5
1A7
330
1F
100
AcDbEntity
  8
Sichtbare_Kanten_TC_020513_DIN_
  6
Continuous
 62
     7
100
AcDbLine
 10
432.234139342715
 20
247.408281483135
 30
0.0
 11
432.234139342715
 21
254.708281483135
 31
0.0
  0
LINE
  5
1A8
330
1F
100
AcDbEntity
  8
Sichtbare_Kanten_TC_020513_DIN_
  6
Continuous
 62
     7
100
AcDbLine
 10
433.484139342708
 20
255.302495045508
 30
0.0
 11
433.484139342709
 21
271.034048051655
 31
0.0
  0
LINE
  5
1A9
330
1F
100
AcDbEntity
  8
Sichtbare_Kanten_TC_020513_DIN_
  6
Continuous
 62
     7
100
AcDbLine
 10
434.984139342708
 20
268.865099175045
 30
0.0
 11
434.984139342709
 21
271.034048051655
 31
0.0
  0
LINE
  5
1AA
330
1F
100
AcDbEntity
  8
Sichtbare_Kanten_TC_020513_DIN_
  6
Continuous
 62
     7
100
AcDbLine
 10
434.984139342709
 20
271.034048051655
 30
0.0
 11
434.984139342712
 21
274.498073620314
 31
0.0
  0
LINE
  5
1AB
330
1F
100
AcDbEntity
  8
Sichtbare_Kanten_TC_020513_DIN_
  6
Continuous
 62
     7
100
AcDbLine
 10
433.484139342709
 20
271.034048051655
 30
0.0
 11
433.484139342712
 21
274.498073620314
 31
0.0
  0
LINE
  5
1AC
330
1F
100
AcDbEntity
  8
Sichtbare_Kanten_TC_020513_DIN_
  6
Continuous
 62
     7
100
AcDbLine
 10
436.984139342708
 20
268.865099175045
 30
0.0
 11
436.984139342709
 21
271.034048051655
 31
0.0
  0
LINE
  5
1AD
330
1F
100
AcDbEntity
  8
Sichtbare_Kanten_TC_020513_DIN_
  6
Continuous
 62
     7
100
AcDbLine
 10
438.484139342705
 20
255.302495045508
 30
0.0
 11
438.484139342709
 21
271.034048051655
 31
0.0
  0
LINE
  5
1AE
330
1F
100
AcDbEntity
  8
Sichtbare_Kanten_TC_020513_DIN_
  6
Continuous
 62
     7
100
AcDbLine
 10
436.984139342709
 20
271.034048051655
 30
0.0
 11
436.984139342712
 21
274.498073620314
 31
0.0
  0
LINE
  5
1AF
330
1F
100
AcDbEntity
  8
Sichtbare_Kanten_TC_020513_DIN_
  6
Continuous
 62
     7
100
AcDbLine
 10
438.484139342709
 20
271.034048051655
 30
0.0
 11
438.484139342712
 21
274.498073620314
 31
0.0
  0
LINE
  5
1B0
330
1F
100
AcDbEntity
  8
Sichtbare_Kanten_TC_020513_DIN_
  6
Continuous
 62
     7
100
AcDbLine
 10
436.984139342709
 20
270.939204904921
 30
0.0
 11
434.984139342709
 21
270.939204904921
 31
0.0
  0
LINE
  5
1B1
330
1F
100
AcDbEntity
  8
Sichtbare_Kanten_TC_020513_DIN_
  6
Continuous
 62
     7
100
AcDbLine
 10
436.984139342705
 20
239.744572984151
 30
0.0
 11
434.984139342705
 21
239.744572984151
 31
0.0
  0
LINE
  5
1B2
330
1F
100
AcDbEntity
  8
Sichtbare_Kanten_TC_020513_DIN_
  6
Continuous
 62
     7
100
AcDbLine
 10
436.984139342708
 20
268.865099175045
 30
0.0
 11
436.984139342705
 21
255.302495045508
 31
0.0
  0
LINE
  5
1B3
330
1F
100
AcDbEntity
  8
Sichtbare_Kanten_TC_020513_DIN_
  6
Continuous
 62
     7
100
AcDbLine
 10
483.984139342709
 20
271.034048051655
 30
0.0
 11
483.984139342712
 21
274.498073620314
 31
0.0
  0
LINE
  5
1B4
330
1F
100
AcDbEntity
  8
Sichtbare_Kanten_TC_020513_DIN_
  6
Continuous
 62
     7
100
AcDbLine
 10
483.984139342705
 20
255.302495045508
 30
0.0
 11
483.984139342709
 21
271.034048051655
 31
0.0
  0
LINE
  5
1B5
330
1F
100
AcDbEntity
  8
Sichtbare_Kanten_TC_020513_DIN_
  6
Continuous
 62
     7
100
AcDbLine
 10
488.984139342709
 20
271.034048051655
 30
0.0
 11
488.984139342712
 21
274.498073620314
 31
0.0
  0
LINE
  5
1B6
330
1F
100
AcDbEntity
  8
Sichtbare_Kanten_TC_020513_DIN_
  6
Continuous
 62
     7
100
AcDbLine
 10
488.984139342708
 20
255.302495045508
 30
0.0
 11
488.984139342709
 21
271.034048051655
 31
0.0
  0
LINE
  5
1B7
330
1F
100
AcDbEntity
  8
Sichtbare_Kanten_TC_020513_DIN_
  6
Continuous
 62
     7
100
AcDbLine
 10
483.974139342713
 20
267.488281483135
 30
0.0
 11
483.974139342713
 21
269.988281483135
 31
0.0
  0
LINE
  5
1B8
330
1F
100
AcDbEntity
  8
Sichtbare_Kanten_TC_020513_DIN_
  6
Continuous
 62
     7
100
AcDbLine
 10
483.774139342713
 20
267.688281483135
 30
0.0
 11
483.774139342713
 21
269.788281483135
 31
0.0
  0
LINE
  5
1B9
330
1F
100
AcDbEntity
  8
Sichtbare_Kanten_TC_020513_DIN_
  6
Continuous
 62
     7
100
AcDbLine
 10
488.994139342713
 20
267.488281483135
 30
0.0
 11
488.994139342713
 21
269.988281483135
 31
0.0
  0
LINE
  5
1BA
330
1F
100
AcDbEntity
  8
Sichtbare_Kanten_TC_020513_DIN_
  6
Continuous
 62
     7
100
AcDbLine
 10
489.194139342713
 20
267.688281483135
 30
0.0
 11
489.194139342713
 21
269.788281483135
 31
0.0
  0
LINE
  5
1BB
330
1F
100
AcDbEntity
  8
Sichtbare_Kanten_TC_020513_DIN_
  6
Continuous
 62
     7
100
AcDbLine
 10
485.484139342709
 20
270.939204904921
 30
0.0
 11
487.484139342709
 21
270.939204904921
 31
0.0
  0
LINE
  5
1BC
330
1F
100
AcDbEntity
  8
Sichtbare_Kanten_TC_020513_DIN_
  6
Continuous
 62
     7
100
AcDbLine
 10
487.484139342705
 20
255.302495045508
 30
0.0
 11
487.484139342708
 21
268.865099175045
 31
0.0
  0
LINE
  5
1BD
330
1F
100
AcDbEntity
  8
Sichtbare_Kanten_TC_020513_DIN_
  6
Continuous
 62
     7
100
AcDbLine
 10
485.484139342703
 20
246.815640796016
 30
0.0
 11
485.484139342705
 21
239.744572984151
 31
0.0
  0
LINE
  5
1BE
330
1F
100
AcDbEntity
  8
Sichtbare_Kanten_TC_020513_DIN_
  6
Continuous
 62
     7
100
AcDbLine
 10
485.484139342708
 20
268.865099175045
 30
0.0
 11
485.484139342705
 21
255.302495045508
 31
0.0
  0
LINE
  5
1BF
330
1F
100
AcDbEntity
  8
Sichtbare_Kanten_TC_020513_DIN_
  6
Continuous
 62
     7
100
AcDbLine
 10
487.484139342703
 20
246.815640796016
 30
0.0
 11
487.484139342703
 21
246.81698998212
 31
0.0
  0
LINE
  5
1C0
330
1F
100
AcDbEntity
  8
Sichtbare_Kanten_TC_020513_DIN_
  6
Continuous
 62
     7
100
AcDbLine
 10
485.484139342703
 20
246.815640796016
 30
0.0
 11
487.484139342703
 21
246.815640796016
 31
0.0
  0
LINE
  5
1C1
330
1F
100
AcDbEntity
  8
Sichtbare_Kanten_TC_020513_DIN_
  6
Continuous
 62
     7
100
AcDbLine
 10
485.484139342703
 20
246.81698998212
 30
0.0
 11
485.484139342703
 21
246.815640796016
 31
0.0
  0
LINE
  5
1C2
330
1F
100
AcDbEntity
  8
Sichtbare_Kanten_TC_020513_DIN_
  6
Continuous
 62
     7
100
AcDbLine
 10
434.984139342705
 20
255.302495045508
 30
0.0
 11
434.984139342708
 21
268.865099175045
 31
0.0
  0
LINE
  5
1C3
330
1F
100
AcDbEntity
  8
Sichtbare_Kanten_TC_020513_DIN_
  6
Continuous
 62
     7
100
AcDbLine
 10
434.984139342705
 20
239.744572984151
 30
0.0
 11
434.984139342703
 21
246.815640796016
 31
0.0
  0
LINE
  5
1C4
330
1F
100
AcDbEntity
  8
Sichtbare_Kanten_TC_020513_DIN_
  6
Continuous
 62
     7
100
AcDbLine
 10
436.984139342703
 20
246.815640796016
 30
0.0
 11
434.984139342703
 21
246.815640796016
 31
0.0
  0
LINE
  5
1C5
330
1F
100
AcDbEntity
  8
Sichtbare_Kanten_TC_020513_DIN_
  6
Continuous
 62
     7
100
AcDbLine
 10
434.984139342703
 20
246.815640796016
 30
0.0
 11
434.984139342703
 21
246.81698998212
 31
0.0
  0
LINE
  5
1C6
330
1F
100
AcDbEntity
  8
Sichtbare_Kanten_TC_020513_DIN_
  6
Continuous
 62
     7
100
AcDbLine
 10
436.984139342703
 20
246.815640796016
 30
0.0
 11
436.984139342705
 21
239.744572984151
 31
0.0
  0
LINE
  5
1C7
330
1F
100
AcDbEntity
  8
Sichtbare_Kanten_TC_020513_DIN_
  6
Continuous
 62
     7
100
AcDbLine
 10
436.984139342703
 20
246.81698998212
 30
0.0
 11
436.984139342703
 21
246.815640796016
 31
0.0
  0
LINE
  5
1C8
330
1F
100
AcDbEntity
  8
Sichtbare_Kanten_TC_020513_DIN_
  6
Continuous
 62
     7
100
AcDbLine
 10
476.827312616657
 20
244.486524955073
 30
0.0
 11
475.044562723307
 21
240.69640424826
 31
0.0
  0
LINE
  5
1C9
330
1F
100
AcDbEntity
  8
Sichtbare_Kanten_TC_020513_DIN_
  6
Continuous
 62
     7
100
AcDbLine
 10
472.202765630084
 20
239.287793358713
 30
0.0
 11
450.265513055317
 21
239.287793358713
 31
0.0
  0
LINE
  5
1CA
330
1F
100
AcDbEntity
  8
Sichtbare_Kanten_TC_020513_DIN_
  6
Continuous
 62
     7
100
AcDbLine
 10
447.423715962095
 20
240.69640424826
 30
0.0
 11
445.640966068749
 21
244.486524955073
 31
0.0
  0
LINE
  5
1CB
330
1F
100
AcDbEntity
  8
Sichtbare_Kanten_TC_020513_DIN_
  6
Continuous
 62
     7
100
AcDbLine
 10
446.484139342703
 20
248.191545606184
 30
0.0
 11
446.484139342703
 21
248.231427233643
 31
0.0
  0
LINE
  5
1CC
330
1F
100
AcDbEntity
  8
Sichtbare_Kanten_TC_020513_DIN_
  6
Continuous
 62
     7
100
AcDbLine
 10
446.484139342705
 20
238.332718734658
 30
0.0
 11
475.984139342705
 21
238.332718734658
 31
0.0
  0
LINE
  5
1CD
330
1F
100
AcDbEntity
  8
Sichtbare_Kanten_TC_020513_DIN_
  6
Continuous
 62
     7
100
AcDbLine
 10
475.984139342702
 20
248.191545606184
 30
0.0
 11
475.984139342702
 21
248.231427233643
 31
0.0
  0
LINE
  5
1CE
330
1F
100
AcDbEntity
  8
Sichtbare_Kanten_TC_020513_DIN_
  6
Continuous
 62
     7
100
AcDbLine
 10
487.484139342703
 20
246.81698998212
 30
0.0
 11
485.484139342703
 21
246.81698998212
 31
0.0
  0
LINE
  5
1CF
330
1F
100
AcDbEntity
  8
Sichtbare_Kanten_TC_020513_DIN_
  6
Continuous
 62
     7
100
AcDbLine
 10
489.984139342702
 20
248.231427233643
 30
0.0
 11
489.984139342705
 21
238.331932297031
 31
0.0
  0
LINE
  5
1D0
330
1F
100
AcDbEntity
  8
Sichtbare_Kanten_TC_020513_DIN_
  6
Continuous
 62
     7
100
AcDbLine
 10
489.984139342705
 20
238.331932297031
 30
0.0
 11
475.984139342705
 21
238.331932297031
 31
0.0
  0
LINE
  5
1D1
330
1F
100
AcDbEntity
  8
Sichtbare_Kanten_TC_020513_DIN_
  6
Continuous
 62
     7
100
AcDbLine
 10
475.984139342705
 20
238.331932297031
 30
0.0
 11
475.984139342704
 21
242.693941207365
 31
0.0
  0
LINE
  5
1D2
330
1F
100
AcDbEntity
  8
Sichtbare_Kanten_TC_020513_DIN_
  6
Continuous
 62
     7
100
AcDbLine
 10
432.484139342702
 20
248.231427233643
 30
0.0
 11
432.484139342704
 21
255.302495045508
 31
0.0
  0
LINE
  5
1D3
330
1F
100
AcDbEntity
  8
Sichtbare_Kanten_TC_020513_DIN_
  6
Continuous
 62
     7
100
AcDbLine
 10
432.484139342704
 20
255.302495045508
 30
0.0
 11
438.484139342705
 21
255.302495045508
 31
0.0
  0
LINE
  5
1D4
330
1F
100
AcDbEntity
  8
Sichtbare_Kanten_TC_020513_DIN_
  6
Continuous
 62
     7
100
AcDbLine
 10
438.484139342705
 20
255.302495045508
 30
0.0
 11
444.484139342703
 21
251.059854358389
 31
0.0
  0
LINE
  5
1D5
330
1F
100
AcDbEntity
  8
Sichtbare_Kanten_TC_020513_DIN_
  6
Continuous
 62
     7
100
AcDbLine
 10
444.484139342703
 20
251.059854358389
 30
0.0
 11
446.484139342703
 21
251.059854358389
 31
0.0
  0
LINE
  5
1D6
330
1F
100
AcDbEntity
  8
Sichtbare_Kanten_TC_020513_DIN_
  6
Continuous
 62
     7
100
AcDbLine
 10
446.484139342703
 20
251.059854358389
 30
0.0
 11
446.484139342703
 21
251.060640796016
 31
0.0
  0
LINE
  5
1D7
330
1F
100
AcDbEntity
  8
Sichtbare_Kanten_TC_020513_DIN_
  6
Continuous
 62
     7
100
AcDbLine
 10
475.984139342703
 20
251.060640796016
 30
0.0
 11
446.484139342703
 21
251.060640796016
 31
0.0
  0
LINE
  5
1D8
330
1F
100
AcDbEntity
  8
Sichtbare_Kanten_TC_020513_DIN_
  6
Continuous
 62
     7
100
AcDbLine
 10
475.984139342703
 20
251.060640796016
 30
0.0
 11
475.984139342703
 21
251.059854358389
 31
0.0
  0
LINE
  5
1D9
330
1F
100
AcDbEntity
  8
Sichtbare_Kanten_TC_020513_DIN_
  6
Continuous
 62
     7
100
AcDbLine
 10
477.984139342703
 20
251.059854358389
 30
0.0
 11
475.984139342703
 21
251.059854358389
 31
0.0
  0
LINE
  5
1DA
330
1F
100
AcDbEntity
  8
Sichtbare_Kanten_TC_020513_DIN_
  6
Continuous
 62
     7
100
AcDbLine
 10
483.984139342705
 20
255.302495045508
 30
0.0
 11
477.984139342703
 21
251.059854358389
 31
0.0
  0
LINE
  5
1DB
330
1F
100
AcDbEntity
  8
Sichtbare_Kanten_TC_020513_DIN_
  6
Continuous
 62
     7
100
AcDbLine
 10
489.984139342705
 20
255.302495045508
 30
0.0
 11
483.984139342705
 21
255.302495045508
 31
0.0
  0
LINE
  5
1DC
330
1F
100
AcDbEntity
  8
Sichtbare_Kanten_TC_020513_DIN_
  6
Continuous
 62
     7
100
AcDbLine
 10
489.984139342702
 20
248.231427233643
 30
0.0
 11
489.984139342705
 21
255.302495045508
 31
0.0
  0
LINE
  5
1DD
330
1F
100
AcDbEntity
  8
Sichtbare_Kanten_TC_020513_DIN_
  6
Continuous
 62
     7
100
AcDbLine
 10
483.984139342703
 20
248.231427233643
 30
0.0
 11
489.984139342702
 21
248.231427233643
 31
0.0
  0
LINE
  5
1DE
330
1F
100
AcDbEntity
  8
Sichtbare_Kanten_TC_020513_DIN_
  6
Continuous
 62
     7
100
AcDbLine
 10
479.690944660126
 20
248.231427233643
 30
0.0
 11
475.984139342702
 21
248.231427233643
 31
0.0
  0
LINE
  5
1DF
330
1F
100
AcDbEntity
  8
Sichtbare_Kanten_TC_020513_DIN_
  6
Continuous
 62
     7
100
AcDbLine
 10
475.984139342702
 20
248.23221367127
 30
0.0
 11
475.984139342702
 21
248.231427233643
 31
0.0
  0
LINE
  5
1E0
330
1F
100
AcDbEntity
  8
Sichtbare_Kanten_TC_020513_DIN_
  6
Continuous
 62
     7
100
AcDbLine
 10
475.984139342702
 20
248.23221367127
 30
0.0
 11
446.484139342703
 21
248.23221367127
 31
0.0
  0
LINE
  5
1E1
330
1F
100
AcDbEntity
  8
Sichtbare_Kanten_TC_020513_DIN_
  6
Continuous
 62
     7
100
AcDbLine
 10
446.484139342703
 20
248.23221367127
 30
0.0
 11
446.484139342703
 21
248.231427233643
 31
0.0
  0
LINE
  5
1E2
330
1F
100
AcDbEntity
  8
Sichtbare_Kanten_TC_020513_DIN_
  6
Continuous
 62
     7
100
AcDbLine
 10
446.484139342703
 20
248.231427233643
 30
0.0
 11
442.777334025278
 21
248.231427233643
 31
0.0
  0
LINE
  5
1E3
330
1F
100
AcDbEntity
  8
Sichtbare_Kanten_TC_020513_DIN_
  6
Continuous
 62
     7
100
AcDbLine
 10
483.984139342703
 20
248.231427233643
 30
0.0
 11
483.984139342704
 21
243.281679765337
 31
0.0
  0
LINE
  5
1E4
330
1F
100
AcDbEntity
  8
Sichtbare_Kanten_TC_020513_DIN_
  6
Continuous
 62
     7
100
AcDbLine
 10
483.984139342703
 20
248.232495045508
 30
0.0
 11
483.984139342703
 21
248.231427233643
 31
0.0
  0
LINE
  5
1E5
330
1F
100
AcDbEntity
  8
Sichtbare_Kanten_TC_020513_DIN_
  6
Continuous
 62
     7
100
AcDbLine
 10
438.484139342702
 20
248.232495045508
 30
0.0
 11
442.682158378766
 21
248.232495045508
 31
0.0
  0
LINE
  5
1E6
330
1F
100
AcDbEntity
  8
Sichtbare_Kanten_TC_020513_DIN_
  6
Continuous
 62
     7
100
AcDbLine
 10
438.484139342702
 20
248.231427233643
 30
0.0
 11
438.484139342702
 21
248.232495045508
 31
0.0
  0
LINE
  5
1E7
330
1F
100
AcDbEntity
  8
Sichtbare_Kanten_TC_020513_DIN_
  6
Continuous
 62
     7
100
AcDbLine
 10
438.484139342704
 20
243.282747577203
 30
0.0
 11
442.682158378767
 21
243.282747577203
 31
0.0
  0
LINE
  5
1E8
330
1F
100
AcDbEntity
  8
Sichtbare_Kanten_TC_020513_DIN_
  6
Continuous
 62
     7
100
AcDbLine
 10
442.777334025279
 20
248.191545606184
 30
0.0
 11
446.484139342703
 21
248.191545606184
 31
0.0
  0
LINE
  5
1E9
330
1F
100
AcDbEntity
  8
Sichtbare_Kanten_TC_020513_DIN_
  6
Continuous
 62
     7
100
AcDbLine
 10
446.484139342703
 20
248.192179175822
 30
0.0
 11
475.984139342702
 21
248.192179175822
 31
0.0
  0
LINE
  5
1EA
330
1F
100
AcDbEntity
  8
Sichtbare_Kanten_TC_020513_DIN_
  6
Continuous
 62
     7
100
AcDbLine
 10
479.690944660127
 20
248.191545606184
 30
0.0
 11
475.984139342702
 21
248.191545606184
 31
0.0
  0
LINE
  5
1EB
330
1F
100
AcDbEntity
  8
Sichtbare_Kanten_TC_020513_DIN_
  6
Continuous
 62
     7
100
AcDbLine
 10
475.261499195819
 20
243.467079844132
 30
0.0
 11
476.888342827771
 21
246.925744326017
 31
0.0
  0
LINE
  5
1EC
330
1F
100
AcDbEntity
  8
Sichtbare_Kanten_TC_020513_DIN_
  6
Continuous
 62
     7
100
AcDbLine
 10
472.356146978745
 20
242.215713172907
 30
0.0
 11
450.112131706658
 21
242.215713172907
 31
0.0
  0
LINE
  5
1ED
330
1F
100
AcDbEntity
  8
Sichtbare_Kanten_TC_020513_DIN_
  6
Continuous
 62
     7
100
AcDbLine
 10
483.984139342704
 20
243.281679765337
 30
0.0
 11
479.690944660128
 21
243.281679765337
 31
0.0
  0
LINE
  5
1EE
330
1F
100
AcDbEntity
  8
Sichtbare_Kanten_TC_020513_DIN_
  6
Continuous
 62
     7
100
AcDbLine
 10
479.786120306639
 20
248.232495045508
 30
0.0
 11
483.984139342703
 21
248.232495045508
 31
0.0
  0
LINE
  5
1EF
330
1F
100
AcDbEntity
  8
Sichtbare_Kanten_TC_020513_DIN_
  6
Continuous
 62
     7
100
AcDbLine
 10
483.984139342704
 20
243.282747577203
 30
0.0
 11
479.786120306641
 21
243.282747577203
 31
0.0
  0
LINE
  5
1F0
330
1F
100
AcDbEntity
  8
Sichtbare_Kanten_TC_020513_DIN_
  6
Continuous
 62
     7
100
AcDbLine
 10
479.690944660127
 20
248.191545606184
 30
0.0
 11
479.690944660126
 21
248.231427233643
 31
0.0
  0
LINE
  5
1F1
330
1F
100
AcDbEntity
  8
Sichtbare_Kanten_TC_020513_DIN_
  6
Continuous
 62
     7
100
AcDbLine
 10
479.690944660128
 20
244.783964455468
 30
0.0
 11
479.690944660128
 21
243.281679765337
 31
0.0
  0
LINE
  5
1F2
330
1F
100
AcDbEntity
  8
Sichtbare_Kanten_TC_020513_DIN_
  6
Continuous
 62
     7
100
AcDbLine
 10
436.984139342703
 20
246.81698998212
 30
0.0
 11
434.984139342703
 21
246.81698998212
 31
0.0
  0
LINE
  5
1F3
330
1F
100
AcDbEntity
  8
Sichtbare_Kanten_TC_020513_DIN_
  6
Continuous
 62
     7
100
AcDbLine
 10
432.484139342705
 20
238.331932297031
 30
0.0
 11
446.484139342705
 21
238.331932297031
 31
0.0
  0
LINE
  5
1F4
330
1F
100
AcDbEntity
  8
Sichtbare_Kanten_TC_020513_DIN_
  6
Continuous
 62
     7
100
AcDbLine
 10
432.484139342702
 20
248.231427233643
 30
0.0
 11
432.484139342705
 21
238.331932297031
 31
0.0
  0
LINE
  5
1F5
330
1F
100
AcDbEntity
  8
Sichtbare_Kanten_TC_020513_DIN_
  6
Continuous
 62
     7
100
AcDbLine
 10
438.484139342702
 20
248.231427233643
 30
0.0
 11
432.484139342702
 21
248.231427233643
 31
0.0
  0
LINE
  5
1F6
330
1F
100
AcDbEntity
  8
Sichtbare_Kanten_TC_020513_DIN_
  6
Continuous
 62
     7
100
AcDbLine
 10
438.484139342704
 20
243.281679765337
 30
0.0
 11
438.484139342702
 21
248.231427233643
 31
0.0
  0
LINE
  5
1F7
330
1F
100
AcDbEntity
  8
Sichtbare_Kanten_TC_020513_DIN_
  6
Continuous
 62
     7
100
AcDbLine
 10
442.77733402528
 20
243.281679765337
 30
0.0
 11
438.484139342704
 21
243.281679765337
 31
0.0
  0
LINE
  5
1F8
330
1F
100
AcDbEntity
  8
Sichtbare_Kanten_TC_020513_DIN_
  6
Continuous
 62
     7
100
AcDbLine
 10
446.484139342705
 20
238.331932297031
 30
0.0
 11
446.484139342704
 21
242.693941207365
 31
0.0
  0
LINE
  5
1F9
330
1F
100
AcDbEntity
  8
Sichtbare_Kanten_TC_020513_DIN_
  6
Continuous
 62
     7
100
AcDbLine
 10
479.641304758332
 20
244.760473199059
 30
0.0
 11
477.035564845663
 21
244.760473199059
 31
0.0
  0
LINE
  5
1FA
330
1F
100
AcDbEntity
  8
Sichtbare_Kanten_TC_020513_DIN_
  6
Continuous
 62
     7
100
AcDbLine
 10
445.432962806006
 20
244.760473207418
 30
0.0
 11
442.826973920847
 21
244.760473198254
 31
0.0
  0
LINE
  5
1FB
330
1F
100
AcDbEntity
  8
Sichtbare_Kanten_TC_020513_DIN_
  6
Continuous
 62
     7
100
AcDbLine
 10
445.579935857632
 20
246.925744326019
 30
0.0
 11
447.206779489583
 21
243.46707984413
 31
0.0
  0
LINE
  5
1FC
330
1F
100
AcDbEntity
  8
Sichtbare_Kanten_TC_020513_DIN_
  6
Continuous
 62
     7
100
AcDbLine
 10
442.777334025279
 20
248.191545606184
 30
0.0
 11
442.777334025278
 21
248.231427233643
 31
0.0
  0
LINE
  5
1FD
330
1F
100
AcDbEntity
  8
Sichtbare_Kanten_TC_020513_DIN_
  6
Continuous
 62
     7
100
AcDbLine
 10
442.777334025279
 20
244.783964455468
 30
0.0
 11
442.77733402528
 21
243.281679765337
 31
0.0
  0
LINE
  5
1FE
330
1F
100
AcDbEntity
  8
Sichtbare_Kanten_TC_020513_DIN_
  6
Continuous
 62
     7
100
AcDbLine
 10
448.904139342705
 20
218.638281483135
 30
0.0
 11
448.904139342705
 21
207.558281483135
 31
0.0
  0
LINE
  5
1FF
330
1F
100
AcDbEntity
  8
Sichtbare_Kanten_TC_020513_DIN_
  6
Continuous
 62
     7
100
AcDbLine
 10
473.564139342705
 20
207.558281483135
 30
0.0
 11
473.564139342705
 21
218.638281483135
 31
0.0
  0
LINE
  5
200
330
1F
100
AcDbEntity
  8
Sichtbare_Kanten_TC_020513_DIN_
  6
Continuous
 62
     7
100
AcDbLine
 10
486.234139342705
 20
207.558281483135
 30
0.0
 11
473.564139342705
 21
207.558281483135
 31
0.0
  0
LINE
  5
201
330
1F
100
AcDbEntity
  8
Sichtbare_Kanten_TC_020513_DIN_
  6
Continuous
 62
     7
100
AcDbLine
 10
482.98413934271
 20
238.331932297031
 30
0.0
 11
482.98413934271
 21
207.558281483135
 31
0.0
  0
LINE
  5
202
330
1F
100
AcDbEntity
  8
Sichtbare_Kanten_TC_020513_DIN_
  6
Continuous
 62
     7
100
AcDbLine
 10
482.98413934271
 20
255.058281483135
 30
0.0
 11
482.98413934271
 21
254.595388264322
 31
0.0
  0
LINE
  5
203
330
1F
100
AcDbEntity
  8
Sichtbare_Kanten_TC_020513_DIN_
  6
Continuous
 62
     7
100
AcDbLine
 10
439.48413934271
 20
238.331932297031
 30
0.0
 11
439.48413934271
 21
207.558281483135
 31
0.0
  0
LINE
  5
204
330
1F
100
AcDbEntity
  8
Sichtbare_Kanten_TC_020513_DIN_
  6
Continuous
 62
     7
100
AcDbLine
 10
439.48413934271
 20
255.058281483135
 30
0.0
 11
439.48413934271
 21
254.595388264322
 31
0.0
  0
LINE
  5
205
330
1F
100
AcDbEntity
  8
Sichtbare_Kanten_TC_020513_DIN_
  6
Continuous
 62
     7
100
AcDbLine
 10
435.234139342705
 20
207.558281483135
 30
0.0
 11
435.234139342705
 21
203.558281483135
 31
0.0
  0
LINE
  5
206
330
1F
100
AcDbEntity
  8
Sichtbare_Kanten_TC_020513_DIN_
  6
Continuous
 62
     7
100
AcDbLine
 10
435.234139342705
 20
207.558281483135
 30
0.0
 11
436.234139342705
 21
207.558281483135
 31
0.0
  0
LINE
  5
207
330
1F
100
AcDbEntity
  8
Sichtbare_Kanten_TC_020513_DIN_
  6
Continuous
 62
     7
100
AcDbLine
 10
436.234139342705
 20
203.558281483135
 30
0.0
 11
435.234139342705
 21
203.558281483135
 31
0.0
  0
LINE
  5
208
330
1F
100
AcDbEntity
  8
Sichtbare_Kanten_TC_020513_DIN_
  6
Continuous
 62
     7
100
AcDbLine
 10
487.234139342705
 20
203.558281483135
 30
0.0
 11
487.234139342705
 21
207.558281483135
 31
0.0
  0
LINE
  5
209
330
1F
100
AcDbEntity
  8
Sichtbare_Kanten_TC_020513_DIN_
  6
Continuous
 62
     7
100
AcDbLine
 10
487.234139342705
 20
203.558281483135
 30
0.0
 11
486.234139342705
 21
203.558281483135
 31
0.0
  0
LINE
  5
20A
330
1F
100
AcDbEntity
  8
Sichtbare_Kanten_TC_020513_DIN_
  6
Continuous
 62
     7
100
AcDbLine
 10
486.234139342705
 20
207.558281483135
 30
0.0
 11
487.234139342705
 21
207.558281483135
 31
0.0
  0
LINE
  5
20B
330
1F
100
AcDbEntity
  8
Sichtbare_Kanten_TC_020513_DIN_
  6
Continuous
 62
     7
100
AcDbLine
 10
436.234139342705
 20
207.558281483135
 30
0.0
 11
448.904139342705
 21
207.558281483135
 31
0.0
  0
LINE
  5
20C
330
1F
100
AcDbEntity
  8
Sichtbare_Kanten_TC_020513_DIN_
  6
Continuous
 62
     7
100
AcDbLine
 10
436.234139342705
 20
203.558281483135
 30
0.0
 11
486.234139342705
 21
203.558281483135
 31
0.0
  0
LINE
  5
20D
330
1F
100
AcDbEntity
  8
Sichtbare_Kanten_TC_020513_DIN_
  6
Continuous
 62
     7
100
AcDbLine
 10
326.40207473753
 20
260.558281483135
 30
0.0
 11
275.628203668618
 21
260.558281483135
 31
0.0
  0
LINE
  5
20E
330
1F
100
AcDbEntity
  8
Sichtbare_Kanten_TC_020513_DIN_
  6
Continuous
 62
     7
100
AcDbLine
 10
312.328998541439
 20
255.058281483135
 30
0.0
 11
289.701279864708
 21
255.058281483135
 31
0.0
  0
LINE
  5
20F
330
1F
100
AcDbEntity
  8
Sichtbare_Kanten_TC_020513_DIN_
  6
Continuous
 62
     7
100
AcDbLine
 10
322.277979956846
 20
255.21538892713
 30
0.0
 11
315.127545770672
 21
255.083992394833
 31
0.0
  0
LINE
  5
210
330
1F
100
AcDbEntity
  8
Sichtbare_Kanten_TC_020513_DIN_
  6
Continuous
 62
     7
100
AcDbLine
 10
326.120690448283
 20
259.958746548657
 30
0.0
 11
323.511922328115
 21
255.903585775618
 31
0.0
  0
LINE
  5
211
330
1F
100
AcDbEntity
  8
Sichtbare_Kanten_TC_020513_DIN_
  6
Continuous
 62
     7
100
AcDbLine
 10
325.432401092652
 20
263.4326501539
 30
0.0
 11
325.785954483245
 21
263.079096763307
 31
0.0
  0
LINE
  5
212
330
1F
100
AcDbEntity
  8
Sichtbare_Kanten_TC_020513_DIN_
  6
Continuous
 62
     7
100
AcDbLine
 10
332.199250643012
 20
269.742839445234
 30
0.0
 11
325.432401092652
 21
263.4326501539
 31
0.0
  0
LINE
  5
213
330
1F
100
AcDbEntity
  8
Sichtbare_Kanten_TC_020513_DIN_
  6
Continuous
 62
     7
100
AcDbLine
 10
347.706264700028
 20
239.744572984151
 30
0.0
 11
354.777332511894
 21
246.815640796016
 31
0.0
  0
LINE
  5
214
330
1F
100
AcDbEntity
  8
Sichtbare_Kanten_TC_020513_DIN_
  6
Continuous
 62
     7
100
AcDbLine
 10
347.704915513924
 20
239.745922170255
 30
0.0
 11
347.706264700028
 21
239.744572984151
 31
0.0
  0
LINE
  5
215
330
1F
100
AcDbEntity
  8
Sichtbare_Kanten_TC_020513_DIN_
  6
Continuous
 62
     7
100
AcDbLine
 10
339.22098332579
 20
245.401427233643
 30
0.0
 11
339.221207014939
 21
245.401650922793
 31
0.0
  0
LINE
  5
216
330
1F
100
AcDbEntity
  8
Sichtbare_Kanten_TC_020513_DIN_
  6
Continuous
 62
     7
100
AcDbLine
 10
327.244421031325
 20
241.941375845758
 30
0.0
 11
339.22098332579
 21
245.401427233643
 31
0.0
  0
LINE
  5
217
330
1F
100
AcDbEntity
  8
Sichtbare_Kanten_TC_020513_DIN_
  6
Continuous
 62
     7
100
AcDbLine
 10
319.937621337631
 20
243.915213432833
 30
0.0
 11
323.814999956179
 21
242.180765003669
 31
0.0
  0
LINE
  5
218
330
1F
100
AcDbEntity
  8
Sichtbare_Kanten_TC_020513_DIN_
  6
Continuous
 62
     7
100
AcDbLine
 10
349.119129076297
 20
255.302271356359
 30
0.0
 11
335.556301257611
 21
268.865099175045
 31
0.0
  0
LINE
  5
219
330
1F
100
AcDbEntity
  8
Sichtbare_Kanten_TC_020513_DIN_
  6
Continuous
 62
     7
100
AcDbLine
 10
354.777332511894
 20
246.815640796016
 30
0.0
 11
354.77598332579
 21
246.81698998212
 31
0.0
  0
LINE
  5
21A
330
1F
100
AcDbEntity
  8
Sichtbare_Kanten_TC_020513_DIN_
  6
Continuous
 62
     7
100
AcDbLine
 10
339.219857828835
 20
245.403000108897
 30
0.0
 11
349.119352765447
 21
255.302495045508
 31
0.0
  0
LINE
  5
21B
330
1F
100
AcDbEntity
  8
Sichtbare_Kanten_TC_020513_DIN_
  6
Continuous
 62
     7
100
AcDbLine
 10
339.219857828835
 20
245.403000108897
 30
0.0
 11
346.290925640701
 21
238.331932297031
 31
0.0
  0
LINE
  5
21C
330
1F
100
AcDbEntity
  8
Sichtbare_Kanten_TC_020513_DIN_
  6
Continuous
 62
     7
100
AcDbLine
 10
356.190420577313
 20
248.231427233643
 30
0.0
 11
346.290925640701
 21
238.331932297031
 31
0.0
  0
LINE
  5
21D
330
1F
100
AcDbEntity
  8
Sichtbare_Kanten_TC_020513_DIN_
  6
Continuous
 62
     7
100
AcDbLine
 10
356.190420577313
 20
248.231427233643
 30
0.0
 11
349.119352765447
 21
255.302495045508
 31
0.0
  0
LINE
  5
21E
330
1F
100
AcDbEntity
  8
Sichtbare_Kanten_TC_020513_DIN_
  6
Continuous
 62
     7
100
AcDbLine
 10
358.027166521722
 20
246.925744326018
 30
0.0
 11
363.154847485751
 21
243.46707984413
 31
0.0
  0
LINE
  5
21F
330
1F
100
AcDbEntity
  8
Sichtbare_Kanten_TC_020513_DIN_
  6
Continuous
 62
     7
100
AcDbLine
 10
358.027166521722
 20
246.925744326018
 30
0.0
 11
356.150538949854
 21
248.191545606184
 31
0.0
  0
LINE
  5
220
330
1F
100
AcDbEntity
  8
Sichtbare_Kanten_TC_020513_DIN_
  6
Continuous
 62
     7
100
AcDbLine
 10
363.154847485751
 20
243.46707984413
 30
0.0
 11
365.010074869804
 21
242.215713172907
 31
0.0
  0
LINE
  5
221
330
1F
100
AcDbEntity
  8
Sichtbare_Kanten_TC_020513_DIN_
  6
Continuous
 62
     7
100
AcDbLine
 10
363.332496159391
 20
239.728600455242
 30
0.0
 11
365.010074869804
 21
242.215713172907
 31
0.0
  0
LINE
  5
222
330
1F
100
AcDbEntity
  8
Sichtbare_Kanten_TC_020513_DIN_
  6
Continuous
 62
     7
100
AcDbLine
 10
353.951639548062
 20
244.849850186357
 30
0.0
 11
355.088362401457
 21
244.083120940453
 31
0.0
  0
LINE
  5
223
330
1F
100
AcDbEntity
  8
Sichtbare_Kanten_TC_020513_DIN_
  6
Continuous
 62
     7
100
AcDbLine
 10
355.088362401457
 20
244.083120940453
 30
0.0
 11
360.707447427331
 21
240.293000233639
 31
0.0
  0
LINE
  5
224
330
1F
100
AcDbEntity
  8
Sichtbare_Kanten_TC_020513_DIN_
  6
Continuous
 62
     7
100
AcDbLine
 10
361.944265683366
 20
239.458755786158
 30
0.0
 11
360.707447427331
 21
240.293000233639
 31
0.0
  0
LINE
  5
225
330
1F
100
AcDbEntity
  8
Sichtbare_Kanten_TC_020513_DIN_
  6
Continuous
 62
     7
100
AcDbLine
 10
254.325362892224
 20
239.745922170255
 30
0.0
 11
254.32401370612
 21
239.744572984151
 31
0.0
  0
LINE
  5
226
330
1F
100
AcDbEntity
  8
Sichtbare_Kanten_TC_020513_DIN_
  6
Continuous
 62
     7
100
AcDbLine
 10
254.32401370612
 20
239.744572984151
 30
0.0
 11
247.252945894254
 21
246.815640796016
 31
0.0
  0
LINE
  5
227
330
1F
100
AcDbEntity
  8
Sichtbare_Kanten_TC_020513_DIN_
  6
Continuous
 62
     7
100
AcDbLine
 10
269.831027763136
 20
269.742839445234
 30
0.0
 11
276.597877313496
 21
263.4326501539
 31
0.0
  0
LINE
  5
228
330
1F
100
AcDbEntity
  8
Sichtbare_Kanten_TC_020513_DIN_
  6
Continuous
 62
     7
100
AcDbLine
 10
276.597877313496
 20
263.4326501539
 30
0.0
 11
276.244323922903
 21
263.079096763307
 31
0.0
  0
LINE
  5
229
330
1F
100
AcDbEntity
  8
Sichtbare_Kanten_TC_020513_DIN_
  6
Continuous
 62
     7
100
AcDbLine
 10
275.909587957865
 20
259.958746548657
 30
0.0
 11
278.518356078033
 21
255.903585775618
 31
0.0
  0
LINE
  5
22A
330
1F
100
AcDbEntity
  8
Sichtbare_Kanten_TC_020513_DIN_
  6
Continuous
 62
     7
100
AcDbLine
 10
279.752298449302
 20
255.21538892713
 30
0.0
 11
286.902732635476
 21
255.083992394833
 31
0.0
  0
LINE
  5
22B
330
1F
100
AcDbEntity
  8
Sichtbare_Kanten_TC_020513_DIN_
  6
Continuous
 62
     7
100
AcDbLine
 10
282.092657068517
 20
243.915213432833
 30
0.0
 11
278.215278449969
 21
242.180765003669
 31
0.0
  0
LINE
  5
22C
330
1F
100
AcDbEntity
  8
Sichtbare_Kanten_TC_020513_DIN_
  6
Continuous
 62
     7
100
AcDbLine
 10
274.785857374823
 20
241.941375845758
 30
0.0
 11
262.809295080358
 21
245.401427233643
 31
0.0
  0
LINE
  5
22D
330
1F
100
AcDbEntity
  8
Sichtbare_Kanten_TC_020513_DIN_
  6
Continuous
 62
     7
100
AcDbLine
 10
262.809295080358
 20
245.401427233643
 30
0.0
 11
262.809071391208
 21
245.401650922793
 31
0.0
  0
LINE
  5
22E
330
1F
100
AcDbEntity
  8
Sichtbare_Kanten_TC_020513_DIN_
  6
Continuous
 62
     7
100
AcDbLine
 10
252.911149329851
 20
255.302271356359
 30
0.0
 11
266.473977148537
 21
268.865099175045
 31
0.0
  0
LINE
  5
22F
330
1F
100
AcDbEntity
  8
Sichtbare_Kanten_TC_020513_DIN_
  6
Continuous
 62
     7
100
AcDbLine
 10
247.252945894254
 20
246.815640796016
 30
0.0
 11
247.254295080358
 21
246.81698998212
 31
0.0
  0
LINE
  5
230
330
1F
100
AcDbEntity
  8
Sichtbare_Kanten_TC_020513_DIN_
  6
Continuous
 62
     7
100
AcDbLine
 10
262.810420577313
 20
245.403000108897
 30
0.0
 11
252.910925640701
 21
255.302495045508
 31
0.0
  0
LINE
  5
231
330
1F
100
AcDbEntity
  8
Sichtbare_Kanten_TC_020513_DIN_
  6
Continuous
 62
     7
100
AcDbLine
 10
262.810420577313
 20
245.403000108897
 30
0.0
 11
255.739352765447
 21
238.331932297031
 31
0.0
  0
LINE
  5
232
330
1F
100
AcDbEntity
  8
Sichtbare_Kanten_TC_020513_DIN_
  6
Continuous
 62
     7
100
AcDbLine
 10
245.839857828835
 20
248.231427233643
 30
0.0
 11
255.739352765447
 21
238.331932297031
 31
0.0
  0
LINE
  5
233
330
1F
100
AcDbEntity
  8
Sichtbare_Kanten_TC_020513_DIN_
  6
Continuous
 62
     7
100
AcDbLine
 10
245.839857828835
 20
248.231427233643
 30
0.0
 11
252.910925640701
 21
255.302495045508
 31
0.0
  0
LINE
  5
234
330
1F
100
AcDbEntity
  8
Sichtbare_Kanten_TC_020513_DIN_
  6
Continuous
 62
     7
100
AcDbLine
 10
238.875430920397
 20
243.46707984413
 30
0.0
 11
244.003111884425
 21
246.925744326018
 31
0.0
  0
LINE
  5
235
330
1F
100
AcDbEntity
  8
Sichtbare_Kanten_TC_020513_DIN_
  6
Continuous
 62
     7
100
AcDbLine
 10
237.020203536344
 20
242.215713172907
 30
0.0
 11
238.697782246756
 21
239.728600455242
 31
0.0
  0
LINE
  5
236
330
1F
100
AcDbEntity
  8
Sichtbare_Kanten_TC_020513_DIN_
  6
Continuous
 62
     7
100
AcDbLine
 10
237.020203536344
 20
242.215713172907
 30
0.0
 11
238.875430920397
 21
243.46707984413
 31
0.0
  0
LINE
  5
237
330
1F
100
AcDbEntity
  8
Sichtbare_Kanten_TC_020513_DIN_
  6
Continuous
 62
     7
100
AcDbLine
 10
245.879739456294
 20
248.191545606184
 30
0.0
 11
244.003111884425
 21
246.925744326018
 31
0.0
  0
LINE
  5
238
330
1F
100
AcDbEntity
  8
Sichtbare_Kanten_TC_020513_DIN_
  6
Continuous
 62
     7
100
AcDbLine
 10
246.941916004691
 20
244.083120940453
 30
0.0
 11
248.078638858086
 21
244.849850186357
 31
0.0
  0
LINE
  5
239
330
1F
100
AcDbEntity
  8
Sichtbare_Kanten_TC_020513_DIN_
  6
Continuous
 62
     7
100
AcDbLine
 10
241.322830978817
 20
240.293000233639
 30
0.0
 11
246.941916004691
 21
244.083120940453
 31
0.0
  0
LINE
  5
23A
330
1F
100
AcDbEntity
  8
Sichtbare_Kanten_TC_020513_DIN_
  6
Continuous
 62
     7
100
AcDbLine
 10
241.322830978817
 20
240.293000233639
 30
0.0
 11
240.086012722782
 21
239.458755786158
 31
0.0
  0
LINE
  5
23B
330
1F
100
AcDbEntity
  8
Sichtbare_Kanten_TC_020513_DIN_
  6
Continuous
 62
     7
100
AcDbLine
 10
265.765139203074
 20
244.547478303414
 30
0.0
 11
265.765139203074
 21
207.558281483135
 31
0.0
  0
LINE
  5
23C
330
1F
100
AcDbEntity
  8
Sichtbare_Kanten_TC_020513_DIN_
  6
Continuous
 62
     7
100
AcDbLine
 10
336.265139203074
 20
244.547478303414
 30
0.0
 11
336.265139203074
 21
207.558281483135
 31
0.0
  0
LINE
  5
23D
330
1F
100
AcDbEntity
  8
Sichtbare_Kanten_TC_020513_DIN_
  6
Continuous
 62
     7
100
AcDbLine
 10
265.765139203074
 20
230.968281483135
 30
0.0
 11
254.265139203074
 21
230.968281483135
 31
0.0
  0
LINE
  5
23E
330
1F
100
AcDbEntity
  8
Sichtbare_Kanten_TC_020513_DIN_
  6
Continuous
 62
     7
100
AcDbLine
 10
254.265139203074
 20
230.968281483135
 30
0.0
 11
254.265139203074
 21
218.638281483135
 31
0.0
  0
LINE
  5
23F
330
1F
100
AcDbEntity
  8
Sichtbare_Kanten_TC_020513_DIN_
  6
Continuous
 62
     7
100
AcDbLine
 10
254.265139203074
 20
207.558281483135
 30
0.0
 11
254.265139203074
 21
218.638281483135
 31
0.0
  0
LINE
  5
240
330
1F
100
AcDbEntity
  8
Sichtbare_Kanten_TC_020513_DIN_
  6
Continuous
 62
     7
100
AcDbLine
 10
301.015139203074
 20
244.308281483135
 30
0.0
 11
299.890139203074
 21
245.861861296821
 31
0.0
  0
LINE
  5
241
330
1F
100
AcDbEntity
  8
Sichtbare_Kanten_TC_020513_DIN_
  6
Continuous
 62
     7
100
AcDbLine
 10
299.890139203074
 20
245.861861296821
 30
0.0
 11
299.890139203074
 21
241.871502436772
 31
0.0
  0
LINE
  5
242
330
1F
100
AcDbEntity
  8
Sichtbare_Kanten_TC_020513_DIN_
  6
Continuous
 62
     7
100
AcDbLine
 10
299.140139203074
 20
241.871502436772
 30
0.0
 11
299.140139203074
 21
247.019098991037
 31
0.0
  0
LINE
  5
243
330
1F
100
AcDbEntity
  8
Sichtbare_Kanten_TC_020513_DIN_
  6
Continuous
 62
     7
100
AcDbLine
 10
299.818868062564
 20
247.239039391856
 30
0.0
 11
301.015139203074
 21
245.587036995776
 31
0.0
  0
LINE
  5
244
330
1F
100
AcDbEntity
  8
Sichtbare_Kanten_TC_020513_DIN_
  6
Continuous
 62
     7
100
AcDbLine
 10
301.015139203074
 20
245.587036995776
 30
0.0
 11
302.211410343583
 21
247.239039391856
 31
0.0
  0
LINE
  5
245
330
1F
100
AcDbEntity
  8
Sichtbare_Kanten_TC_020513_DIN_
  6
Continuous
 62
     7
100
AcDbLine
 10
302.890139203074
 20
247.019098991037
 30
0.0
 11
302.890139203074
 21
240.097463975234
 31
0.0
  0
LINE
  5
246
330
1F
100
AcDbEntity
  8
Sichtbare_Kanten_TC_020513_DIN_
  6
Continuous
 62
     7
100
AcDbLine
 10
302.140139203074
 20
240.097463975234
 30
0.0
 11
302.140139203074
 21
245.861861296821
 31
0.0
  0
LINE
  5
247
330
1F
100
AcDbEntity
  8
Sichtbare_Kanten_TC_020513_DIN_
  6
Continuous
 62
     7
100
AcDbLine
 10
302.140139203074
 20
245.861861296821
 30
0.0
 11
301.015139203074
 21
244.308281483135
 31
0.0
  0
LINE
  5
248
330
1F
100
AcDbEntity
  8
Sichtbare_Kanten_TC_020513_DIN_
  6
Continuous
 62
     7
100
AcDbLine
 10
298.315139203074
 20
246.110445144883
 30
0.0
 11
298.315139203074
 21
241.222704293113
 31
0.0
  0
LINE
  5
249
330
1F
100
AcDbEntity
  8
Sichtbare_Kanten_TC_020513_DIN_
  6
Continuous
 62
     7
100
AcDbLine
 10
298.315139203074
 20
241.222704293113
 30
0.0
 11
301.202535123132
 21
239.556898954617
 31
0.0
  0
LINE
  5
24A
330
1F
100
AcDbEntity
  8
Sichtbare_Kanten_TC_020513_DIN_
  6
Continuous
 62
     7
100
AcDbLine
 10
300.827743283015
 20
238.907259765081
 30
0.0
 11
297.752743283015
 21
240.681298226619
 31
0.0
  0
LINE
  5
24B
330
1F
100
AcDbEntity
  8
Sichtbare_Kanten_TC_020513_DIN_
  6
Continuous
 62
     7
100
AcDbLine
 10
297.565139203074
 20
241.006117821388
 30
0.0
 11
297.565139203074
 21
246.110445144883
 31
0.0
  0
LINE
  5
24C
330
1F
100
AcDbEntity
  8
Sichtbare_Kanten_TC_020513_DIN_
  6
Continuous
 62
     7
100
AcDbLine
 10
301.015139203074
 20
248.750348857564
 30
0.0
 11
292.015555754064
 21
243.558281483135
 31
0.0
  0
LINE
  5
24D
330
1F
100
AcDbEntity
  8
Sichtbare_Kanten_TC_020513_DIN_
  6
Continuous
 62
     7
100
AcDbLine
 10
310.014722652084
 20
243.558281483135
 30
0.0
 11
301.015139203074
 21
248.750348857564
 31
0.0
  0
LINE
  5
24E
330
1F
100
AcDbEntity
  8
Sichtbare_Kanten_TC_020513_DIN_
  6
Continuous
 62
     7
100
AcDbLine
 10
301.015139203074
 20
238.366214108707
 30
0.0
 11
310.014722652084
 21
243.558281483135
 31
0.0
  0
LINE
  5
24F
330
1F
100
AcDbEntity
  8
Sichtbare_Kanten_TC_020513_DIN_
  6
Continuous
 62
     7
100
AcDbLine
 10
292.015555754064
 20
243.558281483135
 30
0.0
 11
301.015139203074
 21
238.366214108707
 31
0.0
  0
LINE
  5
250
330
1F
100
AcDbEntity
  8
Sichtbare_Kanten_TC_020513_DIN_
  6
Continuous
 62
     7
100
AcDbLine
 10
296.815139203074
 20
245.245060529498
 30
0.0
 11
296.815139203074
 21
241.871502436772
 31
0.0
  0
LINE
  5
251
330
1F
100
AcDbEntity
  8
Sichtbare_Kanten_TC_020513_DIN_
  6
Continuous
 62
     7
100
AcDbLine
 10
296.065139203074
 20
241.871502436772
 30
0.0
 11
296.065139203074
 21
245.245060529498
 31
0.0
  0
LINE
  5
252
330
1F
100
AcDbEntity
  8
Sichtbare_Kanten_TC_020513_DIN_
  6
Continuous
 62
     7
100
AcDbLine
 10
304.202535123133
 20
246.478533970421
 30
0.0
 11
306.452535123132
 21
245.180457047344
 31
0.0
  0
LINE
  5
253
330
1F
100
AcDbEntity
  8
Sichtbare_Kanten_TC_020513_DIN_
  6
Continuous
 62
     7
100
AcDbLine
 10
306.077743283015
 20
244.530817857807
 30
0.0
 11
304.390139203074
 21
245.504435596235
 31
0.0
  0
LINE
  5
254
330
1F
100
AcDbEntity
  8
Sichtbare_Kanten_TC_020513_DIN_
  6
Continuous
 62
     7
100
AcDbLine
 10
304.390139203074
 20
245.504435596235
 30
0.0
 11
304.390139203074
 21
243.933281483135
 31
0.0
  0
LINE
  5
255
330
1F
100
AcDbEntity
  8
Sichtbare_Kanten_TC_020513_DIN_
  6
Continuous
 62
     7
100
AcDbLine
 10
304.390139203074
 20
243.933281483135
 30
0.0
 11
306.265139203074
 21
243.933281483135
 31
0.0
  0
LINE
  5
256
330
1F
100
AcDbEntity
  8
Sichtbare_Kanten_TC_020513_DIN_
  6
Continuous
 62
     7
100
AcDbLine
 10
306.265139203074
 20
243.183281483135
 30
0.0
 11
304.390139203074
 21
243.183281483135
 31
0.0
  0
LINE
  5
257
330
1F
100
AcDbEntity
  8
Sichtbare_Kanten_TC_020513_DIN_
  6
Continuous
 62
     7
100
AcDbLine
 10
304.390139203074
 20
243.183281483135
 30
0.0
 11
304.390139203074
 21
241.612127370036
 31
0.0
  0
LINE
  5
258
330
1F
100
AcDbEntity
  8
Sichtbare_Kanten_TC_020513_DIN_
  6
Continuous
 62
     7
100
AcDbLine
 10
304.390139203074
 20
241.612127370036
 30
0.0
 11
306.077743283015
 21
242.585745108464
 31
0.0
  0
LINE
  5
259
330
1F
100
AcDbEntity
  8
Sichtbare_Kanten_TC_020513_DIN_
  6
Continuous
 62
     7
100
AcDbLine
 10
306.452535123133
 20
241.936105918927
 30
0.0
 11
304.202535123132
 21
240.63802899585
 31
0.0
  0
LINE
  5
25A
330
1F
100
AcDbEntity
  8
Sichtbare_Kanten_TC_020513_DIN_
  6
Continuous
 62
     7
100
AcDbLine
 10
303.640139203074
 20
240.962848590618
 30
0.0
 11
303.640139203074
 21
246.153714375652
 31
0.0
  0
LINE
  5
25B
330
1F
100
AcDbEntity
  8
Sichtbare_Kanten_TC_020513_DIN_
  6
Continuous
 62
     7
100
AcDbLine
 10
310.765139203074
 20
243.558281483135
 30
0.0
 11
301.015139203074
 21
237.933281483135
 31
0.0
  0
LINE
  5
25C
330
1F
100
AcDbEntity
  8
Sichtbare_Kanten_TC_020513_DIN_
  6
Continuous
 62
     7
100
AcDbLine
 10
301.015139203074
 20
249.183281483135
 30
0.0
 11
310.765139203074
 21
243.558281483135
 31
0.0
  0
LINE
  5
25D
330
1F
100
AcDbEntity
  8
Sichtbare_Kanten_TC_020513_DIN_
  6
Continuous
 62
     7
100
AcDbLine
 10
291.265139203074
 20
243.558281483135
 30
0.0
 11
301.015139203074
 21
249.183281483135
 31
0.0
  0
LINE
  5
25E
330
1F
100
AcDbEntity
  8
Sichtbare_Kanten_TC_020513_DIN_
  6
Continuous
 62
     7
100
AcDbLine
 10
301.015139203074
 20
237.933281483135
 30
0.0
 11
291.265139203074
 21
243.558281483135
 31
0.0
  0
LINE
  5
25F
330
1F
100
AcDbEntity
  8
Sichtbare_Kanten_TC_020513_DIN_
  6
Continuous
 62
     7
100
AcDbLine
 10
347.765139203074
 20
230.968281483135
 30
0.0
 11
336.265139203074
 21
230.968281483135
 31
0.0
  0
LINE
  5
260
330
1F
100
AcDbEntity
  8
Sichtbare_Kanten_TC_020513_DIN_
  6
Continuous
 62
     7
100
AcDbLine
 10
347.765139203074
 20
207.558281483135
 30
0.0
 11
347.765139203074
 21
218.638281483135
 31
0.0
  0
LINE
  5
261
330
1F
100
AcDbEntity
  8
Sichtbare_Kanten_TC_020513_DIN_
  6
Continuous
 62
     7
100
AcDbLine
 10
347.765139203074
 20
230.968281483135
 30
0.0
 11
347.765139203074
 21
218.638281483135
 31
0.0
  0
LINE
  5
262
330
1F
100
AcDbEntity
  8
Sichtbare_Kanten_TC_020513_DIN_
  6
Continuous
 62
     7
100
AcDbLine
 10
337.033088395505
 20
207.558281483135
 30
0.0
 11
346.765139203074
 21
207.558281483135
 31
0.0
  0
LINE
  5
263
330
1F
100
AcDbEntity
  8
Sichtbare_Kanten_TC_020513_DIN_
  6
Continuous
 62
     7
100
AcDbLine
 10
264.997190010643
 20
207.558281483135
 30
0.0
 11
255.265139203074
 21
207.558281483135
 31
0.0
  0
LINE
  5
264
330
1F
100
AcDbEntity
  8
Sichtbare_Kanten_TC_020513_DIN_
  6
Continuous
 62
     7
100
AcDbLine
 10
264.997190010643
 20
203.558281483135
 30
0.0
 11
255.265139203074
 21
203.558281483135
 31
0.0
  0
LINE
  5
265
330
1F
100
AcDbEntity
  8
Sichtbare_Kanten_TC_020513_DIN_
  6
Continuous
 62
     7
100
AcDbLine
 10
337.033088395505
 20
203.558281483135
 30
0.0
 11
346.765139203074
 21
203.558281483135
 31
0.0
  0
LINE
  5
266
330
1F
100
AcDbEntity
  8
Sichtbare_Kanten_TC_020513_DIN_
  6
Continuous
 62
     7
100
AcDbLine
 10
329.135974078475
 20
204.058281483135
 30
0.0
 11
272.894304327673
 21
204.058281483135
 31
0.0
  0
LINE
  5
267
330
1F
100
AcDbEntity
  8
Sichtbare_Kanten_TC_020513_DIN_
  6
Continuous
 62
     7
100
AcDbLine
 10
272.394304327673
 20
207.558281483135
 30
0.0
 11
265.497190010643
 21
207.558281483135
 31
0.0
  0
LINE
  5
268
330
1F
100
AcDbEntity
  8
Sichtbare_Kanten_TC_020513_DIN_
  6
Continuous
 62
     7
100
AcDbLine
 10
329.635974078475
 20
207.558281483135
 30
0.0
 11
336.533088395505
 21
207.558281483135
 31
0.0
  0
LINE
  5
269
330
1F
100
AcDbEntity
  8
Sichtbare_Kanten_TC_020513_DIN_
  6
Continuous
 62
     7
100
AcDbLine
 10
265.497190010643
 20
204.058281483135
 30
0.0
 11
272.394304327673
 21
204.058281483135
 31
0.0
  0
LINE
  5
26A
330
1F
100
AcDbEntity
  8
Sichtbare_Kanten_TC_020513_DIN_
  6
Continuous
 62
     7
100
AcDbLine
 10
336.533088395505
 20
204.058281483135
 30
0.0
 11
329.635974078475
 21
204.058281483135
 31
0.0
  0
LINE
  5
26B
330
1F
100
AcDbEntity
  8
Sichtbare_Kanten_TC_020513_DIN_
  6
Continuous
 62
     7
100
AcDbLine
 10
272.894304327673
 20
207.558281483135
 30
0.0
 11
272.394304327673
 21
207.558281483135
 31
0.0
  0
LINE
  5
26C
330
1F
100
AcDbEntity
  8
Sichtbare_Kanten_TC_020513_DIN_
  6
Continuous
 62
     7
100
AcDbLine
 10
264.997190010643
 20
207.558281483135
 30
0.0
 11
265.497190010643
 21
207.558281483135
 31
0.0
  0
LINE
  5
26D
330
1F
100
AcDbEntity
  8
Sichtbare_Kanten_TC_020513_DIN_
  6
Continuous
 62
     7
100
AcDbLine
 10
336.533088395505
 20
207.558281483135
 30
0.0
 11
337.033088395505
 21
207.558281483135
 31
0.0
  0
LINE
  5
26E
330
1F
100
AcDbEntity
  8
Sichtbare_Kanten_TC_020513_DIN_
  6
Continuous
 62
     7
100
AcDbLine
 10
329.635974078475
 20
207.558281483135
 30
0.0
 11
329.135974078475
 21
207.558281483135
 31
0.0
  0
LINE
  5
26F
330
1F
100
AcDbEntity
  8
Sichtbare_Kanten_TC_020513_DIN_
  6
Continuous
 62
     7
100
AcDbLine
 10
346.765139203074
 20
207.558281483135
 30
0.0
 11
347.765139203074
 21
207.558281483135
 31
0.0
  0
LINE
  5
270
330
1F
100
AcDbEntity
  8
Sichtbare_Kanten_TC_020513_DIN_
  6
Continuous
 62
     7
100
AcDbLine
 10
347.765139203074
 20
203.558281483135
 30
0.0
 11
347.765139203074
 21
207.558281483135
 31
0.0
  0
LINE
  5
271
330
1F
100
AcDbEntity
  8
Sichtbare_Kanten_TC_020513_DIN_
  6
Continuous
 62
     7
100
AcDbLine
 10
265.265139203074
 20
203.558281483135
 30
0.0
 11
265.265139203074
 21
204.058281483135
 31
0.0
  0
LINE
  5
272
330
1F
100
AcDbEntity
  8
Sichtbare_Kanten_TC_020513_DIN_
  6
Continuous
 62
     7
100
AcDbLine
 10
265.265139203074
 20
203.558281483135
 30
0.0
 11
264.997190010643
 21
203.558281483135
 31
0.0
  0
LINE
  5
273
330
1F
100
AcDbEntity
  8
Sichtbare_Kanten_TC_020513_DIN_
  6
Continuous
 62
     7
100
AcDbLine
 10
255.265139203074
 20
203.558281483135
 30
0.0
 11
254.265139203074
 21
203.558281483135
 31
0.0
  0
LINE
  5
274
330
1F
100
AcDbEntity
  8
Sichtbare_Kanten_TC_020513_DIN_
  6
Continuous
 62
     7
100
AcDbLine
 10
254.265139203074
 20
207.558281483135
 30
0.0
 11
254.265139203074
 21
203.558281483135
 31
0.0
  0
LINE
  5
275
330
1F
100
AcDbEntity
  8
Sichtbare_Kanten_TC_020513_DIN_
  6
Continuous
 62
     7
100
AcDbLine
 10
254.265139203074
 20
207.558281483135
 30
0.0
 11
255.265139203074
 21
207.558281483135
 31
0.0
  0
LINE
  5
276
330
1F
100
AcDbEntity
  8
Sichtbare_Kanten_TC_020513_DIN_
  6
Continuous
 62
     7
100
AcDbLine
 10
337.033088395505
 20
203.558281483135
 30
0.0
 11
336.765139203074
 21
203.558281483135
 31
0.0
  0
LINE
  5
277
330
1F
100
AcDbEntity
  8
Sichtbare_Kanten_TC_020513_DIN_
  6
Continuous
 62
     7
100
AcDbLine
 10
347.765139203074
 20
203.558281483135
 30
0.0
 11
346.765139203074
 21
203.558281483135
 31
0.0
  0
LINE
  5
278
330
1F
100
AcDbEntity
  8
Sichtbare_Kanten_TC_020513_DIN_
  6
Continuous
 62
     7
100
AcDbLine
 10
336.765139203074
 20
204.058281483135
 30
0.0
 11
336.765139203074
 21
203.558281483135
 31
0.0
  0
LINE
  5
279
330
1F
100
AcDbEntity
  8
Sichtbare_Kanten_TC_020513_DIN_
  6
Continuous
 62
     7
100
AcDbLine
 10
265.497190010643
 20
204.058281483135
 30
0.0
 11
265.265139203074
 21
204.058281483135
 31
0.0
  0
LINE
  5
27A
330
1F
100
AcDbEntity
  8
Sichtbare_Kanten_TC_020513_DIN_
  6
Continuous
 62
     7
100
AcDbLine
 10
272.394304327673
 20
204.058281483135
 30
0.0
 11
272.894304327673
 21
204.058281483135
 31
0.0
  0
LINE
  5
27B
330
1F
100
AcDbEntity
  8
Sichtbare_Kanten_TC_020513_DIN_
  6
Continuous
 62
     7
100
AcDbLine
 10
329.135974078475
 20
204.058281483135
 30
0.0
 11
329.635974078475
 21
204.058281483135
 31
0.0
  0
LINE
  5
27C
330
1F
100
AcDbEntity
  8
Sichtbare_Kanten_TC_020513_DIN_
  6
Continuous
 62
     7
100
AcDbLine
 10
336.765139203074
 20
204.058281483135
 30
0.0
 11
336.533088395505
 21
204.058281483135
 31
0.0
  0
ARC
  5
27D
330
1F
100
AcDbEntity
  8
Stich_1-Linien_TC_020513_DIN_
  6
DASHED_SPACE
 62
     7
100
AcDbCircle
 10
288.265139203074
 20
251.058281483135
 30
0.0
 40
52.002254237757
100
AcDbArc
 50
180.0
 51
207.8255084541624
  0
ARC
  5
27E
330
1F
100
AcDbEntity
  8
Stich_1-Linien_TC_020513_DIN_
  6
DASHED_SPACE
 62
     7
100
AcDbCircle
 10
313.765139203074
 20
251.058281483135
 30
0.0
 40
52.00225423775702
100
AcDbArc
 50
332.1744915458376
 51
0.0
  0
ARC
  5
27F
330
1F
100
AcDbEntity
  8
Sichtbare_Kanten_TC_020513_DIN_
  6
Continuous
 62
     7
100
AcDbCircle
 10
489.634139342715
 20
254.708281483135
 30
0.0
 40
0.6000000000000227
100
AcDbArc
 50
0.0
 51
54.31466528737611
  0
ARC
  5
280
330
1F
100
AcDbEntity
  8
Sichtbare_Kanten_TC_020513_DIN_
  6
Continuous
 62
     7
100
AcDbCircle
 10
489.634139342715
 20
254.708281483135
 30
0.0
 40
0.5999999999999384
100
AcDbArc
 50
82.03625597685779
 51
97.96374402314758
  0
ARC
  5
281
330
1F
100
AcDbEntity
  8
Sichtbare_Kanten_TC_020513_DIN_
  6
Continuous
 62
     7
100
AcDbCircle
 10
489.634139342715
 20
247.408281483135
 30
0.0
 40
0.5999999999996415
100
AcDbArc
 50
305.6853347126793
 51
0.0
  0
ARC
  5
282
330
1F
100
AcDbEntity
  8
Sichtbare_Kanten_TC_020513_DIN_
  6
Continuous
 62
     7
100
AcDbCircle
 10
433.474139342713
 20
267.688281483135
 30
0.0
 40
0.1999999999999886
100
AcDbArc
 50
180.0
 51
270.0
  0
ARC
  5
283
330
1F
100
AcDbEntity
  8
Sichtbare_Kanten_TC_020513_DIN_
  6
Continuous
 62
     7
100
AcDbCircle
 10
433.474139342713
 20
269.788281483135
 30
0.0
 40
0.1999999999999886
100
AcDbArc
 50
90.0
 51
180.0
  0
ARC
  5
284
330
1F
100
AcDbEntity
  8
Sichtbare_Kanten_TC_020513_DIN_
  6
Continuous
 62
     7
100
AcDbCircle
 10
438.494139342713
 20
267.688281483135
 30
0.0
 40
0.1999999999999886
100
AcDbArc
 50
270.0
 51
0.0
  0
ARC
  5
285
330
1F
100
AcDbEntity
  8
Sichtbare_Kanten_TC_020513_DIN_
  6
Continuous
 62
     7
100
AcDbCircle
 10
438.494139342713
 20
269.788281483135
 30
0.0
 40
0.1999999999999886
100
AcDbArc
 50
0.0
 51
90.0
  0
ARC
  5
286
330
1F
100
AcDbEntity
  8
Sichtbare_Kanten_TC_020513_DIN_
  6
Continuous
 62
     7
100
AcDbCircle
 10
432.834139342715
 20
247.408281483135
 30
0.0
 40
0.5999999999999659
100
AcDbArc
 50
180.0
 51
234.3146652873251
  0
ARC
  5
287
330
1F
100
AcDbEntity
  8
Sichtbare_Kanten_TC_020513_DIN_
  6
Continuous
 62
     7
100
AcDbCircle
 10
432.834139342715
 20
254.708281483135
 30
0.0
 40
0.5999999999999462
100
AcDbArc
 50
82.03625597685242
 51
97.96374402314221
  0
ARC
  5
288
330
1F
100
AcDbEntity
  8
Sichtbare_Kanten_TC_020513_DIN_
  6
Continuous
 62
     7
100
AcDbCircle
 10
432.834139342715
 20
254.708281483135
 30
0.0
 40
0.6000000000004163
100
AcDbArc
 50
125.6853347126195
 51
180.0
  0
ARC
  5
289
330
1F
100
AcDbEntity
  8
Sichtbare_Kanten_TC_020513_DIN_
  6
Continuous
 62
     7
100
AcDbCircle
 10
483.974139342713
 20
269.788281483135
 30
0.0
 40
0.1999999999999886
100
AcDbArc
 50
90.0
 51
180.0
  0
ARC
  5
28A
330
1F
100
AcDbEntity
  8
Sichtbare_Kanten_TC_020513_DIN_
  6
Continuous
 62
     7
100
AcDbCircle
 10
483.974139342713
 20
267.688281483135
 30
0.0
 40
0.1999999999999886
100
AcDbArc
 50
180.0
 51
270.0
  0
ARC
  5
28B
330
1F
100
AcDbEntity
  8
Sichtbare_Kanten_TC_020513_DIN_
  6
Continuous
 62
     7
100
AcDbCircle
 10
488.994139342713
 20
269.788281483135
 30
0.0
 40
0.1999999999999886
100
AcDbArc
 50
0.0
 51
90.0
  0
ARC
  5
28C
330
1F
100
AcDbEntity
  8
Sichtbare_Kanten_TC_020513_DIN_
  6
Continuous
 62
     7
100
AcDbCircle
 10
488.994139342713
 20
267.688281483135
 30
0.0
 40
0.1999999999999886
100
AcDbArc
 50
270.0
 51
0.0
  0
ARC
  5
28D
330
1F
100
AcDbEntity
  8
Sichtbare_Kanten_TC_020513_DIN_
  6
Continuous
 62
     7
100
AcDbCircle
 10
461.234139342705
 20
218.638281483135
 30
0.0
 40
12.32999999999998
100
AcDbArc
 50
0.0
 51
180.0
  0
ARC
  5
28E
330
1F
100
AcDbEntity
  8
Sichtbare_Kanten_TC_020513_DIN_
  6
Continuous
 62
     7
100
AcDbCircle
 10
322.250420577313
 20
256.715135732628
 30
0.0
 40
1.500000000000602
100
AcDbArc
 50
271.0527499896079
 51
327.2459918911181
  0
ARC
  5
28F
330
1F
100
AcDbEntity
  8
Sichtbare_Kanten_TC_020513_DIN_
  6
Continuous
 62
     7
100
AcDbCircle
 10
324.018187530279
 20
261.31132981034
 30
0.0
 40
2.500000000000066
100
AcDbArc
 50
327.2459918911329
 51
45.00000000001658
  0
ARC
  5
290
330
1F
100
AcDbEntity
  8
Sichtbare_Kanten_TC_020513_DIN_
  6
Continuous
 62
     7
100
AcDbCircle
 10
320.966603516117
 20
250.220778200771
 30
0.0
 40
3.500000000000432
100
AcDbArc
 50
196.2669765291587
 51
324.5940682268587
  0
ARC
  5
291
330
1F
100
AcDbEntity
  8
Sichtbare_Kanten_TC_020513_DIN_
  6
Continuous
 62
     7
100
AcDbCircle
 10
325.857010429974
 20
246.744584849288
 30
0.0
 40
2.49999999999959
100
AcDbArc
 50
55.91037592429257
 51
144.5940682268797
  0
ARC
  5
292
330
1F
100
AcDbEntity
  8
Sichtbare_Kanten_TC_020513_DIN_
  6
Continuous
 62
     7
100
AcDbCircle
 10
329.219944601443
 20
251.713555945839
 30
0.0
 40
3.49999999999982
100
AcDbArc
 50
235.9103759242767
 51
310.3104084914659
  0
ARC
  5
293
330
1F
100
AcDbEntity
  8
Sichtbare_Kanten_TC_020513_DIN_
  6
Continuous
 62
     7
100
AcDbCircle
 10
322.427197272609
 20
259.720339552671
 30
0.0
 40
14.00000000000073
100
AcDbArc
 50
310.3104084914689
 51
44.99999999999721
  0
ARC
  5
294
330
1F
100
AcDbEntity
  8
Sichtbare_Kanten_TC_020513_DIN_
  6
Continuous
 62
     7
100
AcDbCircle
 10
328.791158303288
 20
266.084300583349
 30
0.0
 40
5.000000000000402
100
AcDbArc
 50
45.00000000000046
 51
119.2447976051841
  0
ARC
  5
295
330
1F
100
AcDbEntity
  8
Sichtbare_Kanten_TC_020513_DIN_
  6
Continuous
 62
     7
100
AcDbCircle
 10
327.569803258816
 20
268.26565150774
 30
0.0
 40
2.500000000000209
100
AcDbArc
 50
119.2447976051947
 51
176.004736879658
  0
ARC
  5
296
330
1F
100
AcDbEntity
  8
Sichtbare_Kanten_TC_020513_DIN_
  6
Continuous
 62
     7
100
AcDbCircle
 10
320.836207014939
 20
268.735951012799
 30
0.0
 40
4.249999999999986
100
AcDbArc
 50
126.82876644004
 51
356.0047368796692
  0
ARC
  5
297
330
1F
100
AcDbEntity
  8
Sichtbare_Kanten_TC_020513_DIN_
  6
Continuous
 62
     7
100
AcDbCircle
 10
325.37800826333
 20
262.671150543391
 30
0.0
 40
11.82692307692313
100
AcDbArc
 50
45.0000000000002
 51
126.8287664400475
  0
ARC
  5
298
330
1F
100
AcDbEntity
  8
Sichtbare_Kanten_TC_020513_DIN_
  6
Continuous
 62
     7
100
AcDbCircle
 10
322.427197272609
 20
259.720339552671
 30
0.0
 40
16.00000000000003
100
AcDbArc
 50
233.1920875163078
 51
44.99999999999756
  0
ARC
  5
299
330
1F
100
AcDbEntity
  8
Sichtbare_Kanten_TC_020513_DIN_
  6
Continuous
 62
     7
100
AcDbCircle
 10
320.835139203074
 20
268.738281483135
 30
0.0
 40
5.500000000000598
100
AcDbArc
 50
75.56833011577338
 51
16.44480622539233
  0
ARC
  5
29A
330
1F
100
AcDbEntity
  8
Sichtbare_Kanten_TC_020513_DIN_
  6
Continuous
 62
     7
100
AcDbCircle
 10
325.856665161364
 20
246.744930117897
 30
0.0
 40
4.999999999999909
100
AcDbArc
 50
245.8998380201218
 51
286.1141053423815
  0
ARC
  5
29B
330
1F
100
AcDbEntity
  8
Sichtbare_Kanten_TC_020513_DIN_
  6
Continuous
 62
     7
100
AcDbCircle
 10
362.503458586836
 20
240.287793358713
 30
0.0
 40
0.9999999999995628
100
AcDbArc
 50
236.0000000000323
 51
325.9999999999855
  0
ARC
  5
29C
330
1F
100
AcDbEntity
  8
Sichtbare_Kanten_TC_020513_DIN_
  6
Continuous
 62
     7
100
AcDbCircle
 10
278.012090875869
 20
261.31132981034
 30
0.0
 40
2.500000000000181
100
AcDbArc
 50
134.9999999999834
 51
212.7540081088678
  0
ARC
  5
29D
330
1F
100
AcDbEntity
  8
Sichtbare_Kanten_TC_020513_DIN_
  6
Continuous
 62
     7
100
AcDbCircle
 10
279.779857828835
 20
256.715135732628
 30
0.0
 40
1.499999999999857
100
AcDbArc
 50
212.7540081088819
 51
268.9472500103921
  0
ARC
  5
29E
330
1F
100
AcDbEntity
  8
Sichtbare_Kanten_TC_020513_DIN_
  6
Continuous
 62
     7
100
AcDbCircle
 10
276.652270142818
 20
262.671150543391
 30
0.0
 40
11.82692307692358
100
AcDbArc
 50
53.17123355995253
 51
134.9999999999998
  0
ARC
  5
29F
330
1F
100
AcDbEntity
  8
Sichtbare_Kanten_TC_020513_DIN_
  6
Continuous
 62
     7
100
AcDbCircle
 10
281.194071391208
 20
268.735951012799
 30
0.0
 40
4.249999999999883
100
AcDbArc
 50
183.9952631203317
 51
53.17123355994963
  0
ARC
  5
2A0
330
1F
100
AcDbEntity
  8
Sichtbare_Kanten_TC_020513_DIN_
  6
Continuous
 62
     7
100
AcDbCircle
 10
274.460475147332
 20
268.26565150774
 30
0.0
 40
2.50000000000013
100
AcDbArc
 50
3.99526312034199
 51
60.75520239480531
  0
ARC
  5
2A1
330
1F
100
AcDbEntity
  8
Sichtbare_Kanten_TC_020513_DIN_
  6
Continuous
 62
     7
100
AcDbCircle
 10
273.23912010286
 20
266.084300583349
 30
0.0
 40
4.999999999999966
100
AcDbArc
 50
60.75520239481586
 51
134.9999999999995
  0
ARC
  5
2A2
330
1F
100
AcDbEntity
  8
Sichtbare_Kanten_TC_020513_DIN_
  6
Continuous
 62
     7
100
AcDbCircle
 10
279.603081133539
 20
259.720339552671
 30
0.0
 40
13.99999999999975
100
AcDbArc
 50
135.0000000000028
 51
229.6895915085312
  0
ARC
  5
2A3
330
1F
100
AcDbEntity
  8
Sichtbare_Kanten_TC_020513_DIN_
  6
Continuous
 62
     7
100
AcDbCircle
 10
272.810333804705
 20
251.713555945839
 30
0.0
 40
3.500000000000021
100
AcDbArc
 50
229.6895915085341
 51
304.0896240757233
  0
ARC
  5
2A4
330
1F
100
AcDbEntity
  8
Sichtbare_Kanten_TC_020513_DIN_
  6
Continuous
 62
     7
100
AcDbCircle
 10
276.173267976174
 20
246.744584849288
 30
0.0
 40
2.500000000000155
100
AcDbArc
 50
35.40593177312029
 51
124.0896240757074
  0
ARC
  5
2A5
330
1F
100
AcDbEntity
  8
Sichtbare_Kanten_TC_020513_DIN_
  6
Continuous
 62
     7
100
AcDbCircle
 10
281.063674890031
 20
250.220778200771
 30
0.0
 40
3.499999999999445
100
AcDbArc
 50
215.4059317731414
 51
343.7330234708413
  0
ARC
  5
2A6
330
1F
100
AcDbEntity
  8
Sichtbare_Kanten_TC_020513_DIN_
  6
Continuous
 62
     7
100
AcDbCircle
 10
279.603081133539
 20
259.720339552671
 30
0.0
 40
15.99999999999961
100
AcDbArc
 50
135.0000000000024
 51
306.8079124836922
  0
ARC
  5
2A7
330
1F
100
AcDbEntity
  8
Sichtbare_Kanten_TC_020513_DIN_
  6
Continuous
 62
     7
100
AcDbCircle
 10
281.195139203074
 20
268.738281483135
 30
0.0
 40
5.500000000000258
100
AcDbArc
 50
163.5551937746077
 51
104.431669884237
  0
ARC
  5
2A8
330
1F
100
AcDbEntity
  8
Sichtbare_Kanten_TC_020513_DIN_
  6
Continuous
 62
     7
100
AcDbCircle
 10
276.173613244784
 20
246.744930117897
 30
0.0
 40
4.999999999999623
100
AcDbArc
 50
253.8858946576185
 51
294.1001619798782
  0
ARC
  5
2A9
330
1F
100
AcDbEntity
  8
Sichtbare_Kanten_TC_020513_DIN_
  6
Continuous
 62
     7
100
AcDbCircle
 10
239.526819819311
 20
240.287793358713
 30
0.0
 40
1.000000000000103
100
AcDbArc
 50
214.0000000000136
 51
304.0000000000135
  0
ARC
  5
2AA
330
1F
100
AcDbEntity
  8
Sichtbare_Kanten_TC_020513_DIN_
  6
Continuous
 62
     7
100
AcDbCircle
 10
299.515139203074
 20
241.871502436772
 30
0.0
 40
0.375
100
AcDbArc
 50
180.0
 51
0.0
  0
ARC
  5
2AB
330
1F
100
AcDbEntity
  8
Sichtbare_Kanten_TC_020513_DIN_
  6
Continuous
 62
     7
100
AcDbCircle
 10
299.515139203074
 20
247.019098991037
 30
0.0
 40
0.3749999999993487
100
AcDbArc
 50
35.90957617704845
 51
180.0
  0
ARC
  5
2AC
330
1F
100
AcDbEntity
  8
Sichtbare_Kanten_TC_020513_DIN_
  6
Continuous
 62
     7
100
AcDbCircle
 10
302.515139203074
 20
247.019098991037
 30
0.0
 40
0.375
100
AcDbArc
 50
0.0
 51
144.0904238230432
  0
ARC
  5
2AD
330
1F
100
AcDbEntity
  8
Sichtbare_Kanten_TC_020513_DIN_
  6
Continuous
 62
     7
100
AcDbCircle
 10
302.515139203074
 20
240.097463975234
 30
0.0
 40
0.375
100
AcDbArc
 50
180.0
 51
0.0
  0
ARC
  5
2AE
330
1F
100
AcDbEntity
  8
Sichtbare_Kanten_TC_020513_DIN_
  6
Continuous
 62
     7
100
AcDbCircle
 10
297.940139203074
 20
246.110445144883
 30
0.0
 40
0.375
100
AcDbArc
 50
0.0
 51
180.0
  0
ARC
  5
2AF
330
1F
100
AcDbEntity
  8
Sichtbare_Kanten_TC_020513_DIN_
  6
Continuous
 62
     7
100
AcDbCircle
 10
301.015139203074
 20
239.232079359849
 30
0.0
 40
0.3749999999999982
100
AcDbArc
 50
240.0183606310828
 51
60.01836063121071
  0
ARC
  5
2B0
330
1F
100
AcDbEntity
  8
Sichtbare_Kanten_TC_020513_DIN_
  6
Continuous
 62
     7
100
AcDbCircle
 10
297.940139203074
 20
241.006117821388
 30
0.0
 40
0.375
100
AcDbArc
 50
180.0
 51
240.0183606311513
  0
ARC
  5
2B1
330
1F
100
AcDbEntity
  8
Sichtbare_Kanten_TC_020513_DIN_
  6
Continuous
 62
     7
100
AcDbCircle
 10
296.440139203074
 20
241.871502436772
 30
0.0
 40
0.375
100
AcDbArc
 50
180.0
 51
0.0
  0
ARC
  5
2B2
330
1F
100
AcDbEntity
  8
Sichtbare_Kanten_TC_020513_DIN_
  6
Continuous
 62
     7
100
AcDbCircle
 10
296.440139203074
 20
245.245060529498
 30
0.0
 40
0.375
100
AcDbArc
 50
0.0
 51
180.0
  0
ARC
  5
2B3
330
1F
100
AcDbEntity
  8
Sichtbare_Kanten_TC_020513_DIN_
  6
Continuous
 62
     7
100
AcDbCircle
 10
304.015139203074
 20
246.153714375652
 30
0.0
 40
0.3750000000008845
100
AcDbArc
 50
60.01836063116094
 51
180.0
  0
ARC
  5
2B4
330
1F
100
AcDbEntity
  8
Sichtbare_Kanten_TC_020513_DIN_
  6
Continuous
 62
     7
100
AcDbCircle
 10
306.265139203074
 20
244.855637452575
 30
0.0
 40
0.3749999999999982
100
AcDbArc
 50
240.0183606310828
 51
60.01836063128665
  0
ARC
  5
2B5
330
1F
100
AcDbEntity
  8
Sichtbare_Kanten_TC_020513_DIN_
  6
Continuous
 62
     7
100
AcDbCircle
 10
306.265139203074
 20
243.558281483135
 30
0.0
 40
0.375
100
AcDbArc
 50
270.0
 51
90.0
  0
ARC
  5
2B6
330
1F
100
AcDbEntity
  8
Sichtbare_Kanten_TC_020513_DIN_
  6
Continuous
 62
     7
100
AcDbCircle
 10
306.265139203074
 20
242.260925513695
 30
0.0
 40
0.3749999999999982
100
AcDbArc
 50
299.9816393689172
 51
119.9816393688412
  0
ARC
  5
2B7
330
1F
100
AcDbEntity
  8
Sichtbare_Kanten_TC_020513_DIN_
  6
Continuous
 62
     7
100
AcDbCircle
 10
304.015139203074
 20
240.962848590618
 30
0.0
 40
0.375
100
AcDbArc
 50
180.0
 51
299.9816393687893
  0
CIRCLE
  5
2B8
330
1F
100
AcDbEntity
  8
Sichtbare_Kanten_TC_020513_DIN_
  6
Continuous
 62
     7
100
AcDbCircle
 10
461.234139342705
 20
218.638281483135
 30
0.0
 40
8.580000000003963
  0
CIRCLE
  5
2B9
330
1F
100
AcDbEntity
  8
Sichtbare_Kanten_TC_020513_DIN_
  6
Continuous
 62
     7
100
AcDbCircle
 10
461.234139342705
 20
218.638281483135
 30
0.0
 40
10.57999999999998
  0
CIRCLE
  5
2BA
330
1F
100
AcDbEntity
  8
Sichtbare_Kanten_TC_020513_DIN_
  6
Continuous
 62
     7
100
AcDbCircle
 10
313.765139203074
 20
251.058281483135
 30
0.0
 40
4.25
  0
CIRCLE
  5
2BB
330
1F
100
AcDbEntity
  8
Sichtbare_Kanten_TC_020513_DIN_
  6
Continuous
 62
     7
100
AcDbCircle
 10
325.855139203074
 20
246.748281483135
 30
0.0
 40
1.25
  0
CIRCLE
  5
2BC
330
1F
100
AcDbEntity
  8
Sichtbare_Kanten_TC_020513_DIN_
  6
Continuous
 62
     7
100
AcDbCircle
 10
320.835139203074
 20
268.738281483135
 30
0.0
 40
1.25
  0
CIRCLE
  5
2BD
330
1F
100
AcDbEntity
  8
Sichtbare_Kanten_TC_020513_DIN_
  6
Continuous
 62
     7
100
AcDbCircle
 10
288.265139203074
 20
251.058281483135
 30
0.0
 40
4.25
  0
CIRCLE
  5
2BE
330
1F
100
AcDbEntity
  8
Sichtbare_Kanten_TC_020513_DIN_
  6
Continuous
 62
     7
100
AcDbCircle
 10
276.175139203074
 20
246.748281483135
 30
0.0
 40
1.25
  0
CIRCLE
  5
2BF
330
1F
100
AcDbEntity
  8
Sichtbare_Kanten_TC_020513_DIN_
  6
Continuous
 62
     7
100
AcDbCircle
 10
281.195139203074
 20
268.738281483135
 30
0.0
 40
1.25
  0
SPLINE
  5
2C0
330
1F
100
AcDbEntity
  8
Sichtbare_Kanten_TC_020513_DIN_
  6
Continuous
 62
     7
100
AcDbSpline
210
0.0
220
0.0
230
1.0
 70
     8
 71
     3
 72
    19
 73
    15
 74
    13
 42
0.0000000001
 43
0.0000000001
 44
0.00000001
 40
0.0
 40
0.0
 40
0.0
 40
0.0
 40
0.3449858999354902
 40
0.6902012890481436
 40
0.891994888309176
 40
1.093717271387387
 40
1.314797030051868
 40
1.535914276377097
 40
1.773823855232478
 40
2.011730668583297
 40
2.262565378110102
 40
2.51341141695404
 40
2.910719765681025
 40
3.307933761041165
 40
3.307933761041165
 40
3.307933761041165
 40
3.307933761041165
 10
447.206779489583
 20
243.46707984413
 30
0.0
 10
447.2648993494047
 20
243.3671636455522
 30
0.0
 10
447.3811777311464
 20
243.1672647828217
 30
0.0
 10
447.6030636952377
 20
242.9638623139279
 30
0.0
 10
447.8040172506214
 20
242.8161090653104
 30
0.0
 10
447.9820114735987
 20
242.7074989041216
 30
0.0
 10
448.1730142432752
 20
242.6092438397844
 30
0.0
 10
448.3814053623313
 20
242.5195715347455
 30
0.0
 10
448.6002515449254
 20
242.4411904161267
 30
0.0
 10
448.8328390080561
 20
242.373135878541
 30
0.0
 10
449.0730247688413
 20
242.3169552684091
 30
0.0
 10
449.3681564895433
 20
242.2646105932689
 30
0.0
 10
449.7147993098786
 20
242.2241207407818
 30
0.0
 10
449.9796980604003
 20
242.2185154736477
 30
0.0
 10
450.112131706658
 20
242.215713172907
 30
0.0
 11
447.206779489583
 21
243.46707984413
 31
0.0
 11
447.3949825883182
 21
243.1779520786339
 31
0.0
 11
447.6430189802506
 21
242.9378445752997
 31
0.0
 11
447.8057098336714
 21
242.818461398445
 31
0.0
 11
447.9776163587322
 21
242.7129148851143
 31
0.0
 11
448.1740845782655
 21
242.6115418196355
 31
0.0
 11
448.3770699059435
 21
242.5238503527193
 31
0.0
 11
448.6009742832484
 21
242.4434277344155
 31
0.0
 11
448.829242427986
 21
242.376395608261
 31
0.0
 11
449.0734646212908
 21
242.3191804721448
 31
0.0
 11
449.3203948915877
 21
242.2750309895341
 31
0.0
 11
449.7151897216684
 21
242.2304107462618
 31
0.0
 11
450.112131706658
 21
242.215713172907
 31
0.0
  0
SPLINE
  5
2C1
330
1F
100
AcDbEntity
  8
Sichtbare_Kanten_TC_020513_DIN_
  6
Continuous
 62
     7
100
AcDbSpline
210
0.0
220
0.0
230
1.0
 70
     8
 71
     3
 72
    19
 73
    15
 74
    13
 42
0.0000000001
 43
0.0000000001
 44
0.00000001
 40
0.0
 40
0.0
 40
0.0
 40
0.0
 40
0.5168307579290984
 40
1.033653609533239
 40
1.278943825040445
 40
1.524229351800855
 40
1.754620386369786
 40
1.985009234308863
 40
2.197212976837238
 40
2.409381604025374
 40
2.601633161166254
 40
2.793939315886922
 40
3.051504104977321
 40
3.308444602841042
 40
3.308444602841042
 40
3.308444602841042
 40
3.308444602841042
 10
472.356146978745
 20
242.215713172907
 30
0.0
 10
472.5284843957294
 20
242.2204572237051
 30
0.0
 10
472.8731565933308
 20
242.2299452527282
 30
0.0
 10
473.2957382306778
 20
242.294774090618
 30
0.0
 10
473.6231103366996
 20
242.3698266481869
 30
0.0
 10
473.8540858346685
 20
242.4367579162124
 30
0.0
 10
474.0760929445839
 20
242.5152871605754
 30
0.0
 10
474.2825832865569
 20
242.6033748814557
 30
0.0
 10
474.4772886605118
 20
242.7023819414206
 30
0.0
 10
474.6532142066048
 20
242.8090392620264
 30
0.0
 10
474.8148067578471
 20
242.925554253024
 30
0.0
 10
474.9759023642912
 20
243.0665692362947
 30
0.0
 10
475.1367732626388
 20
243.2412616422764
 30
0.0
 10
475.2199575295107
 20
243.3918680245157
 30
0.0
 10
475.261499195819
 20
243.467079844132
 30
0.0
 11
472.356146978745
 21
242.215713172907
 31
0.0
 11
472.8723747141203
 21
242.2406722908971
 31
0.0
 11
473.3835475852476
 21
242.3168835483575
 31
0.0
 11
473.6225478502865
 21
242.3720756051674
 31
0.0
 11
473.8581061857567
 21
242.4404661032549
 31
0.0
 11
474.0752181017171
 21
242.5175533574397
 31
0.0
 11
474.2870285157886
 21
242.6081920343141
 31
0.0
 11
474.4760189757112
 21
242.704696098484
 31
0.0
 11
474.6572819873905
 21
242.8149650739931
 31
0.0
 11
474.8128775579182
 21
242.9278839814234
 31
0.0
 11
474.9576166361849
 21
243.0545025281138
 31
0.0
 11
475.1284153660085
 21
243.2472910507747
 31
0.0
 11
475.261499195819
 21
243.467079844132
 31
0.0
  0
SPLINE
  5
2C2
330
1F
100
AcDbEntity
  8
Sichtbare_Kanten_TC_020513_DIN_
  6
Continuous
 62
     7
100
AcDbSpline
210
0.0
220
0.0
230
1.0
 70
     8
 71
     3
 72
    19
 73
    15
 74
    13
 42
0.0000000001
 43
0.0000000001
 44
0.00000001
 40
0.0
 40
0.0
 40
0.0
 40
0.0
 40
0.5141909792926307
 40
1.028372515491422
 40
1.271303899496651
 40
1.514230820329971
 40
1.741909297332875
 40
1.969583902684766
 40
2.179069891278726
 40
2.388520686571318
 40
2.578493428487932
 40
2.768514692860747
 40
2.991575328425839
 40
3.214064901087075
 40
3.214064901087075
 40
3.214064901087075
 40
3.214064901087075
 10
479.690944660127
 20
248.191545606184
 30
0.0
 10
479.5195989975425
 20
248.1836450981013
 30
0.0
 10
479.1769108191289
 20
248.1678442270285
 30
0.0
 10
478.7582812718273
 20
248.0942704548274
 30
0.0
 10
478.435218659579
 20
248.0118168177841
 30
0.0
 10
478.2084556895244
 20
247.9395132041463
 30
0.0
 10
477.991225104785
 20
247.8555271275917
 30
0.0
 10
477.7900685926481
 20
247.7621030335561
 30
0.0
 10
477.6012655889522
 20
247.6577408178993
 30
0.0
 10
477.4316218936474
 20
247.5459188247911
 30
0.0
 10
477.2769046194397
 20
247.4243082254756
 30
0.0
 10
477.131657051242
 20
247.2851385749867
 30
0.0
 10
476.9942059444172
 20
247.1222497741219
 30
0.0
 10
476.9236003682005
 20
246.9911901488935
 30
0.0
 10
476.888342827771
 20
246.925744326017
 30
0.0
 11
479.690944660127
 21
248.191545606184
 31
0.0
 11
479.1779211577333
 21
248.1569154289161
 31
0.0
 11
478.6711405133706
 21
248.0699899972689
 31
0.0
 11
478.4358547201467
 21
248.0095230406585
 31
0.0
 11
478.2044508359493
 21
247.9355924567037
 31
0.0
 11
477.9921949107929
 21
247.8532218847356
 31
0.0
 11
477.7858193850317
 21
247.7570716466239
 31
0.0
 11
477.6026575100909
 21
247.6554050002478
 31
0.0
 11
477.4279660654151
 21
247.539851831508
 31
0.0
 11
477.2789713240904
 21
247.4219950975939
 31
0.0
 11
477.1417640691351
 21
247.2905331255203
 31
0.0
 11
477.0005366592957
 21
247.1178748912865
 31
0.0
 11
476.888342827771
 21
246.925744326017
 31
0.0
  0
SPLINE
  5
2C3
330
1F
100
AcDbEntity
  8
Sichtbare_Kanten_TC_020513_DIN_
  6
Continuous
 62
     7
100
AcDbSpline
210
0.0
220
0.0
230
1.0
 70
    24
 71
     3
 72
     9
 73
     5
 74
     3
 42
0.0000000001
 43
0.0000000001
 44
0.00000001
 40
0.0
 40
0.0
 40
0.0
 40
0.0
 40
0.0475908182090142
 40
0.0951816364187676
 40
0.0951816364187676
 40
0.0951816364187676
 40
0.0951816364187676
 10
479.786120306639
 20
248.232495045508
 30
0.0
 10
479.770257698887
 20
248.2323170768638
 30
0.0
 10
479.7385324833826
 20
248.2319611395755
 30
0.0
 10
479.7068072678783
 20
248.2316052022871
 30
0.0
 10
479.690944660126
 20
248.231427233643
 30
0.0
 11
479.786120306639
 21
248.232495045508
 31
0.0
 11
479.7385324833829
 21
248.2319611395755
 31
0.0
 11
479.690944660126
 21
248.231427233643
 31
0.0
  0
SPLINE
  5
2C4
330
1F
100
AcDbEntity
  8
Sichtbare_Kanten_TC_020513_DIN_
  6
Continuous
 62
     7
100
AcDbSpline
210
0.0
220
0.0
230
1.0
 70
    24
 71
     3
 72
     9
 73
     5
 74
     3
 42
0.0000000001
 43
0.0000000001
 44
0.00000001
 40
0.0
 40
0.0
 40
0.0
 40
0.0
 40
0.0475908182090199
 40
0.0951816364187219
 40
0.0951816364187219
 40
0.0951816364187219
 40
0.0951816364187219
 10
479.786120306641
 20
243.282747577203
 30
0.0
 10
479.7702576988891
 20
243.2825696085587
 30
0.0
 10
479.7385324833847
 20
243.28221367127
 30
0.0
 10
479.7068072678803
 20
243.2818577339813
 30
0.0
 10
479.690944660128
 20
243.281679765337
 30
0.0
 11
479.786120306641
 21
243.282747577203
 31
0.0
 11
479.7385324833849
 21
243.28221367127
 31
0.0
 11
479.690944660128
 21
243.281679765337
 31
0.0
  0
SPLINE
  5
2C5
330
1F
100
AcDbEntity
  8
Sichtbare_Kanten_TC_020513_DIN_
  6
Continuous
 62
     7
100
AcDbSpline
210
0.0
220
0.0
230
1.0
 70
    24
 71
     3
 72
     9
 73
     5
 74
     3
 42
0.0000000001
 43
0.0000000001
 44
0.00000001
 40
0.0
 40
0.0
 40
0.0
 40
0.0
 40
0.0475908182098157
 40
0.0951816364187788
 40
0.0951816364187788
 40
0.0951816364187788
 40
0.0951816364187788
 10
442.77733402528
 20
243.281679765337
 30
0.0
 10
442.7614714175278
 20
243.2818577339813
 30
0.0
 10
442.7297462020233
 20
243.2822136712699
 30
0.0
 10
442.6980209865189
 20
243.2825696085586
 30
0.0
 10
442.682158378767
 20
243.282747577203
 30
0.0
 11
442.77733402528
 21
243.281679765337
 31
0.0
 11
442.7297462020231
 21
243.28221367127
 31
0.0
 11
442.682158378767
 21
243.282747577203
 31
0.0
  0
SPLINE
  5
2C6
330
1F
100
AcDbEntity
  8
Sichtbare_Kanten_TC_020513_DIN_
  6
Continuous
 62
     7
100
AcDbSpline
210
0.0
220
0.0
230
1.0
 70
    24
 71
     3
 72
     9
 73
     5
 74
     3
 42
0.0000000001
 43
0.0000000001
 44
0.00000001
 40
0.0
 40
0.0
 40
0.0
 40
0.0
 40
0.0475908182089005
 40
0.0951816364176877
 40
0.0951816364176877
 40
0.0951816364176877
 40
0.0951816364176877
 10
442.777334025278
 20
248.231427233643
 30
0.0
 10
442.761471417526
 20
248.2316052022871
 30
0.0
 10
442.7297462020221
 20
248.2319611395754
 30
0.0
 10
442.698020986518
 20
248.2323170768638
 30
0.0
 10
442.682158378766
 20
248.232495045508
 30
0.0
 11
442.777334025278
 21
248.231427233643
 31
0.0
 11
442.7297462020219
 21
248.2319611395755
 31
0.0
 11
442.682158378766
 21
248.232495045508
 31
0.0
  0
SPLINE
  5
2C7
330
1F
100
AcDbEntity
  8
Sichtbare_Kanten_TC_020513_DIN_
  6
Continuous
 62
     7
100
AcDbSpline
210
0.0
220
0.0
230
1.0
 70
     8
 71
     3
 72
    19
 73
    15
 74
    13
 42
0.0000000001
 43
0.0000000001
 44
0.00000001
 40
0.0
 40
0.0
 40
0.0
 40
0.0
 40
0.3496285335404543
 40
0.6994738616864613
 40
0.9028195749471454
 40
1.106099431710251
 40
1.328215576969978
 40
1.550367701248347
 40
1.788846084017056
 40
2.027321448735027
 40
2.278330001169806
 40
2.529353802992067
 40
2.871439062644921
 40
3.213425993505698
 40
3.213425993505698
 40
3.213425993505698
 40
3.213425993505698
 10
445.579935857632
 20
246.925744326019
 30
0.0
 10
445.5212236050157
 20
247.027097400163
 30
0.0
 10
445.4037626940026
 20
247.2298663945796
 30
0.0
 10
445.1802932992447
 20
247.4368572532677
 30
0.0
 10
444.9779476566629
 20
247.5870860256547
 30
0.0
 10
444.7992742766592
 20
247.6972342130169
 30
0.0
 10
444.6076012762569
 20
247.7968356662273
 30
0.0
 10
444.39872343657
 20
247.887608616138
 30
0.0
 10
444.1794210880923
 20
247.9668717771694
 30
0.0
 10
443.9465584767025
 20
248.0355557988032
 30
0.0
 10
443.7061489025609
 20
248.0921327376334
 30
0.0
 10
443.4290434518861
 20
248.1414297317993
 30
0.0
 10
443.119242653295
 20
248.1789839978257
 30
0.0
 10
442.891292646078
 20
248.1873588046639
 30
0.0
 10
442.777334025279
 20
248.191545606184
 30
0.0
 11
445.579935857632
 21
246.925744326019
 31
0.0
 11
445.3898888349935
 21
247.2192102365638
 31
0.0
 11
445.1396145116314
 21
247.463657606546
 31
0.0
 11
444.9762328701349
 21
247.5847192368151
 31
0.0
 11
444.8034787223236
 21
247.6918579533448
 31
0.0
 11
444.6065081564402
 21
247.7945135823215
 31
0.0
 11
444.4028876878172
 21
247.8833407801786
 31
0.0
 11
444.1786816840255
 21
247.9646033602001
 31
0.0
 11
443.9500131639861
 21
248.0322879782482
 31
0.0
 11
443.7056991410416
 21
248.0898722780884
 31
0.0
 11
443.4586155140717
 21
248.1341738623117
 31
0.0
 11
443.1188813989431
 21
248.1742120427099
 31
0.0
 11
442.777334025279
 21
248.191545606184
 31
0.0
  0
LWPOLYLINE
  5
2C8
330
1F
100
AcDbEntity
  8
Sichtbare_Kanten_TC_020513_DIN_
  6
Continuous
 62
     7
100
AcDbPolyline
 90
        5
 70
     0
 43
0.0
 10
477.701447148718
 20
245.020813049755
 10
477.530906339087
 20
245.01083523222
 10
477.386846681036
 20
244.983173908672
 10
477.271793027319
 20
244.941234888516
 10
477.181660075583
 20
244.886131586514
  0
LWPOLYLINE
  5
2C9
330
1F
100
AcDbEntity
  8
Sichtbare_Kanten_TC_020513_DIN_
  6
Continuous
 62
     7
100
AcDbPolyline
 90
        5
 70
     0
 43
0.0
 10
477.181660075583
 20
244.886131586514
 10
477.049052853979
 20
244.77337271162
 10
476.946694989599
 20
244.666049780331
 10
476.873860497869
 20
244.56926614233
 10
476.827312846578
 20
244.486525358639
  0
LWPOLYLINE
  5
2CA
330
1F
100
AcDbEntity
  8
Sichtbare_Kanten_TC_020513_DIN_
  6
Continuous
 62
     7
100
AcDbPolyline
 90
       10
 70
     0
 43
0.0
 10
475.044562955295
 20
240.696404280148
 10
474.952260394489
 20
240.525245966396
 10
474.842199225819
 20
240.364168586216
 10
474.577374596988
 20
240.076846184216
 10
474.261591573154
 20
239.835613073788
 10
473.904651542103
 20
239.63945955225
 10
473.511791367923
 20
239.486217798672
 10
473.092584748661
 20
239.376480283222
 10
472.652257819568
 20
239.310136737309
 10
472.202766080295
 20
239.287793340168
  0
LWPOLYLINE
  5
2CB
330
1F
100
AcDbEntity
  8
Sichtbare_Kanten_TC_020513_DIN_
  6
Continuous
 62
     7
100
AcDbPolyline
 90
        5
 70
     0
 43
0.0
 10
445.286618609823
 20
244.886131586514
 10
445.192840238012
 20
244.943106474362
 10
445.076304812826
 20
244.985410274944
 10
444.934979815878
 20
245.011745991192
 10
444.766831536688
 20
245.020813049755
  0
LWPOLYLINE
  5
2CC
330
1F
100
AcDbEntity
  8
Sichtbare_Kanten_TC_020513_DIN_
  6
Continuous
 62
     7
100
AcDbPolyline
 90
        5
 70
     0
 43
0.0
 10
445.640965838827
 20
244.486525358639
 10
445.594188113607
 20
244.569577278576
 10
445.521741052069
 20
244.666195215664
 10
445.419520278372
 20
244.773299993954
 10
445.286618609823
 20
244.886131586514
  0
LWPOLYLINE
  5
2CD
330
1F
100
AcDbEntity
  8
Sichtbare_Kanten_TC_020513_DIN_
  6
Continuous
 62
     7
100
AcDbPolyline
 90
       10
 70
     0
 43
0.0
 10
450.265512605106
 20
239.287793340168
 10
449.816190143024
 20
239.310085477314
 10
449.37639369527
 20
239.376309217892
 10
448.957049985324
 20
239.48605030962
 10
448.564270873462
 20
239.639138283215
 10
448.207063813602
 20
239.835428299389
 10
447.890544076359
 20
240.077230038128
 10
447.625862498676
 20
240.364322962246
 10
447.515968223011
 20
240.525264443836
 10
447.423715730106
 20
240.696404280148
  0
LWPOLYLINE
  5
2CE
330
1F
100
AcDbEntity
  8
Sichtbare_Kanten_TC_020513_DIN_
  6
Continuous
 62
     7
100
AcDbPolyline
 90
       25
 70
     0
 43
0.0
 10
479.690944095053
 20
244.783964456997
 10
479.690829654135
 20
244.781458677731
 10
479.690488715567
 20
244.779144825421
 10
479.689930816092
 20
244.77701217123
 10
479.68916430036
 20
244.775053562603
 10
479.688193936743
 20
244.773255886517
 10
479.686998267569
 20
244.77157741972
 10
479.68556179563
 20
244.770009817562
 10
479.683871407904
 20
244.768556656323
 10
479.681941409506
 20
244.767234625301
 10
479.679836173453
 20
244.7660771031
 10
479.677578349509
 20
244.765069784603
 10
479.675190587439
 20
244.764200748882
 10
479.672693152823
 20
244.763456882916
 10
479.670112271704
 20
244.762827457867
 10
479.667477746405
 20
244.762300552807
 10
479.664822955527
 20
244.7618654389
 10
479.662171740927
 20
244.761512579403
 10
479.659457345404
 20
244.761219324551
 10
479.65664758245
 20
244.760979713879
 10
479.653746028342
 20
244.760790171108
 10
479.65075625936
 20
244.760647119961
 10
479.647683043875
 20
244.760548176251
 10
479.644532342352
 20
244.760492147884
 10
479.641305346884
 20
244.760473074398
  0
LWPOLYLINE
  5
2CF
330
1F
100
AcDbEntity
  8
Sichtbare_Kanten_TC_020513_DIN_
  6
Continuous
 62
     7
100
AcDbPolyline
 90
       25
 70
     0
 43
0.0
 10
442.826973338523
 20
244.760473074398
 10
442.823358912863
 20
244.760495724163
 10
442.819795747199
 20
244.760569633923
 10
442.816299338736
 20
244.760698379955
 10
442.812880416312
 20
244.760890306912
 10
442.80955328504
 20
244.761150183163
 10
442.806331057944
 20
244.761483969174
 10
442.803225655951
 20
244.761900009594
 10
442.800251384177
 20
244.762401880703
 10
442.797421355643
 20
244.762996735058
 10
442.794749875464
 20
244.76368934103
 10
442.792246480383
 20
244.764486851177
 10
442.78991474668
 20
244.765396418057
 10
442.787760634818
 20
244.766425194225
 10
442.785792489447
 20
244.767577948055
 10
442.784034152426
 20
244.768848719082
 10
442.782486815848
 20
244.770236315212
 10
442.781148095526
 20
244.771741928539
 10
442.78002156774
 20
244.773357214413
 10
442.779121537604
 20
244.775040449581
 10
442.778427739539
 20
244.776772560558
 10
442.777921100058
 20
244.778544010601
 10
442.777582545676
 20
244.78034287878
 10
442.777393002905
 20
244.782154859982
 10
442.777334590354
 20
244.783964456997
  0
LWPOLYLINE
  5
2D0
330
1F
100
AcDbEntity
  8
Sichtbare_Kanten_TC_020513_DIN_
  6
Continuous
 62
     7
100
AcDbPolyline
 90
       25
 70
     0
 43
0.0
 10
352.742415051463
 20
244.7807255406
 10
352.780109028819
 20
244.811451734982
 10
352.818923573496
 20
244.840054811917
 10
352.859049420359
 20
244.866695703945
 10
352.900653462412
 20
244.891526998959
 10
352.943692784312
 20
244.914505781612
 10
352.98808632374
 20
244.935508074246
 10
353.033791165354
 20
244.954438509426
 10
353.080764393809
 20
244.971198143444
 10
353.12896309376
 20
244.985691608868
 10
353.178358654978
 20
244.997822346172
 10
353.228898625376
 20
245.00749618002
 10
353.280544857981
 20
245.014614166698
 10
353.333263974192
 20
245.019080938778
 10
353.387003521921
 20
245.02079874464
 10
353.441601376536
 20
245.019638838253
 10
353.496924023631
 20
245.015420021496
 10
353.55289516926
 20
245.007958712063
 10
353.609428982737
 20
244.997072519741
 10
353.666449170115
 20
244.982579054318
 10
353.723869900706
 20
244.964294733486
 10
353.781486134531
 20
244.942030014477
 10
353.838883023264
 20
244.915622772656
 10
353.89571724415
 20
244.884939493618
 10
353.951640706065
 20
244.849850239239
  0
LWPOLYLINE
  5
2D1
330
1F
100
AcDbEntity
  8
Sichtbare_Kanten_TC_020513_DIN_
  6
Continuous
 62
     7
100
AcDbPolyline
 90
       25
 70
     0
 43
0.0
 10
248.078637700083
 20
244.849850239239
 10
248.134523015025
 20
244.88491565176
 10
248.191304783823
 20
244.915576281033
 10
248.248630146983
 20
244.941960873089
 10
248.306146245005
 20
244.964202942333
 10
248.363471608164
 20
244.98247295805
 10
248.420420269968
 20
244.996968807659
 10
248.476906399729
 20
245.007870497189
 10
248.532834630015
 20
245.015356840572
 10
248.588114361765
 20
245.019607843838
 10
248.642664532664
 20
245.020802320919
 10
248.696365933421
 20
245.019114317379
 10
248.749094586375
 20
245.014666618786
 10
248.800798039439
 20
245.007555784664
 10
248.851433377268
 20
244.997880758724
 10
248.900938611033
 20
244.985738100491
 10
248.949270825388
 20
244.971224369488
 10
248.996382336619
 20
244.95443612524
 10
249.042211155894
 20
244.935472311459
 10
249.08671913624
 20
244.914428295574
 10
249.129844288828
 20
244.891401829205
 10
249.171472172739
 20
244.866547884426
 10
249.211512188914
 20
244.839958252392
 10
249.250217061045
 20
244.811425508938
 10
249.287858586314
 20
244.780729116879
  0
SOLID
  5
2D2
330
1F
100
AcDbEntity
  8
Symbole_TC_020513_DIN_
 62
     7
100
AcDbTrace
 10
482.2861960166174
 20
212.4706705506823
 30
0.0
 11
483.5268924475897
 21
212.0303179893494
 31
0.0
 12
481.234139342707
 22
207.538481760915
 32
0.0
 13
481.234139342707
 23
207.538481760915
 33
0.0
  0
LEADER
  5
2D3
330
1F
100
AcDbEntity
  8
Symbole_TC_020513_DIN_
  6
Continuous
 62
     7
100
AcDbLeader
  3
Standard
 71
     0
 76
     4
 10
481.234139342707
 20
207.538481760915
 30
0.0
 10
487.933470739114
 20
226.413894971333
 30
0.0
 10
491.994840661127
 20
226.413894971333
 30
0.0
 10
495.394840661127
 20
226.413894971333
 30
0.0
  0
MTEXT
  5
2D5
330
1F
100
AcDbEntity
  8
Symbole_TC_020513_DIN_
 62
     7
100
AcDbMText
 10
496.994840661127
 20
229.913894911728
 30
0.0
 40
7.0
 41
0.0
 71
     1
 72
     1
  1
n\P5,5
  7
CONVERTER_13
 73
     1
 44
0.75727272727273
  0
TEXT
  5
2D7
330
1F
100
AcDbEntity
  8
Symbole_ISO_
 62
     7
100
AcDbText
 10
276.0
 20
38.4999999403953
 30
0.0
 40
8.00000011920929
  1
CHPT 10.4/2
 41
0.89999994635582
  7
CONVERTER_14
100
AcDbText
  0
TEXT
  5
2D8
330
1F
100
AcDbEntity
  8
Symbole_ISO_
 62
     7
100
AcDbText
 10
502.610914283349
 20
24.9999999999999
 30
0.0
 40
10.0
  1
1:2
 41
0.67499998211861
  7
CONVERTER_12
100
AcDbText
  0
TEXT
  5
2D9
330
1F
100
AcDbEntity
  8
Symbole_ISO_
 62
     7
100
AcDbText
 10
276.0
 20
23.4999999403953
 30
0.0
 40
8.00000011920929
  1
surface mounting h. 2 lev. 2xNPT 1/2"
 41
0.75
  7
CONVERTER_13
100
AcDbText
  0
DIMENSION
  5
2E4
330
1F
100
AcDbEntity
  8
Bemaßungen_TC_020513_DIN_
100
AcDbDimension
  2
*D3
 10
234.7651392030742
 20
230.3802814831355
 30
0.0
 11
225.8741555130659
 21
216.858390623654
 31
0.0
 70
    32
  1
NPT 1/2"
 71
     5
 42
-1.0
 53
90.0
  3
ME10_DIM_10
100
AcDbAlignedDimension
 13
254.765139203074
 23
206.896281483135
 33
0.0
 14
254.765139203074
 24
230.380281483135
 34
0.0
 50
90.0
100
AcDbRotatedDimension
  0
DIMENSION
  5
2EF
330
1F
100
AcDbEntity
  8
Bemaßungen_TC_020513_DIN_
100
AcDbDimension
  2
*D4
 10
379.2651392030742
 20
230.3802814831355
 30
0.0
 11
370.3741555130658
 21
216.858390623654
 31
0.0
 70
    32
  1
NPT 1/2"
 71
     5
 42
-1.0
 53
90.0
  3
ME10_DIM_11
100
AcDbAlignedDimension
 13
347.265139203074
 23
206.896281483135
 33
0.0
 14
347.265139203074
 24
230.380281483135
 34
0.0
 50
90.0
100
AcDbRotatedDimension
  0
DIMENSION
  5
2FA
330
1F
100
AcDbEntity
  8
Bemaßungen_TC_020513_DIN_
100
AcDbDimension
  2
*D5
 10
432.2341393427153
 20
295.0582814831353
 30
0.0
 11
461.953334431392
 21
303.806303311239
 31
0.0
 70
    32
  1
58
 71
     5
 42
-1.0
 53
0.00013888888889
  3
ME10_DIM_12
100
AcDbAlignedDimension
 13
490.234139342715
 23
251.058281483135
 33
0.0
 14
432.234139342715
 24
251.058281483135
 34
0.0
100
AcDbRotatedDimension
  0
DIMENSION
  5
305
330
1F
100
AcDbEntity
  8
Bemaßungen_TC_020513_DIN_
100
AcDbDimension
  2
*D6
 10
542.2341393427054
 20
203.5582814831352
 30
0.0
 11
533.514766900686
 21
232.784638918333
 31
0.0
 70
    32
  1
57
 71
     5
 42
-1.0
 53
90.0
  3
ME10_DIM_13
100
AcDbAlignedDimension
 13
477.234139342708
 23
260.558281483135
 33
0.0
 14
486.234139342705
 24
203.558281483135
 34
0.0
 50
90.0
100
AcDbRotatedDimension
  0
DIMENSION
  5
310
330
1F
100
AcDbEntity
  8
Bemaßungen_TC_020513_DIN_
100
AcDbDimension
  2
*D7
 10
500.3105736981331
 20
203.5582814831356
 30
0.0
 11
491.710573698133
 21
189.986535234841
 31
0.0
 70
    32
  1
4
 71
     5
 42
-1.0
 53
90.0
  3
ME10_DIM_14
100
AcDbAlignedDimension
 13
486.234139342705
 23
207.558281483135
 33
0.0
 14
486.234139342705
 24
203.558281483135
 34
0.0
 50
90.0
100
AcDbRotatedDimension
  0
DIMENSION
  5
31B
330
1F
100
AcDbEntity
  8
Bemaßungen_TC_020513_DIN_
100
AcDbDimension
  2
*D8
 10
435.2341393427054
 20
161.5582814831353
 30
0.0
 11
461.996308510509
 21
170.306303311239
 31
0.0
 70
    32
  1
52
 71
     5
 42
-1.0
 53
0.00013888888889
  3
ME10_DIM_15
100
AcDbAlignedDimension
 13
487.234139342705
 23
205.558281483135
 33
0.0
 14
435.234139342705
 24
205.558281483135
 34
0.0
100
AcDbRotatedDimension
  0
DIMENSION
  5
326
330
1F
100
AcDbEntity
  8
Bemaßungen_TC_020513_DIN_
100
AcDbDimension
  2
*D9
 10
441.2341393427068
 20
178.5582814831353
 30
0.0
 11
461.831574540524
 21
187.306303311239
 31
0.0
 70
    32
  1
40
 71
     5
 42
-1.0
 53
0.00013888888889
  3
ME10_DIM_16
100
AcDbAlignedDimension
 13
481.234139342707
 23
198.558281483135
 33
0.0
 14
441.234139342707
 24
198.558281483135
 34
0.0
100
AcDbRotatedDimension
  0
DIMENSION
  5
331
330
1F
100
AcDbEntity
  8
Bemaßungen_TC_020513_DIN_
100
AcDbDimension
  2
*D10
 10
254.2651392030739
 20
161.5582814831349
 30
0.0
 11
303.377472081655
 21
171.571651196641
 31
0.0
 70
    32
  1
93,5
 71
     5
 42
-1.0
 53
0.00013888888889
  3
ME10_DIM_17
100
AcDbAlignedDimension
 13
347.765139203074
 23
205.558281483135
 33
0.0
 14
254.265139203074
 24
205.558281483135
 34
0.0
100
AcDbRotatedDimension
  0
DIMENSION
  5
33C
330
1F
100
AcDbEntity
  8
Bemaßungen_TC_020513_DIN_
100
AcDbDimension
  2
*D11
 10
260.0151392030742
 20
178.5582814831353
 30
0.0
 11
301.772533473197
 21
187.306303311239
 31
0.0
 70
    32
  1
82
 71
     5
 42
-1.0
 53
0.00013888888889
  3
ME10_DIM_18
100
AcDbAlignedDimension
 13
342.015139203074
 23
198.558281483135
 33
0.0
 14
260.015139203074
 24
198.558281483135
 34
0.0
100
AcDbRotatedDimension
  0
DIMENSION
  5
347
330
1F
100
AcDbEntity
  8
Bemaßungen_TC_020513_DIN_
100
AcDbDimension
  2
*D12
 10
236.2628849653171
 20
295.0582814831349
 30
0.0
 11
303.857635792433
 21
305.071651196641
 31
0.0
 70
    32
  1
129,5
 71
     5
 42
-1.0
 53
0.00013888888889
  3
ME10_DIM_19
100
AcDbAlignedDimension
 13
365.767393440831
 23
251.058281483135
 33
0.0
 14
236.262884965317
 24
251.058281483135
 34
0.0
100
AcDbRotatedDimension
  0
ENDSEC
  0
SECTION
  2
OBJECTS
  0
DICTIONARY
  5
C
330
0
100
AcDbDictionary
281
     1
  3
ACAD_GROUP
350
D
  3
ACAD_LAYOUT
350
1A
  3
ACAD_MATERIAL
350
3B
  3
ACAD_MLEADERSTYLE
350
34A
  3
ACAD_MLINESTYLE
350
17
  3
ACAD_PLOTSETTINGS
350
19
  3
ACAD_PLOTSTYLENAME
350
E
  3
ACAD_SCALELIST
350
57
  3
ACAD_VISUALSTYLE
350
2A
  3
AcDbVariableDictionary
350
348
  0
DICTIONARY
  5
D
102
{ACAD_REACTORS
330
C
102
}
330
C
100
AcDbDictionary
281
     1
  0
DICTIONARY
  5
1A
102
{ACAD_REACTORS
330
C
102
}
330
C
100
AcDbDictionary
281
     1
  3
Layout1
350
1E
  3
Layout2
350
26
  3
Model
350
22
  0
DICTIONARY
  5
3B
102
{ACAD_REACTORS
330
C
102
}
330
C
100
AcDbDictionary
281
     1
  3
ByBlock
350
3D
  3
ByLayer
350
3C
  3
Global
350
3E
  0
DICTIONARY
  5
34A
102
{ACAD_REACTORS
330
C
102
}
330
C
100
AcDbDictionary
281
     1
  0
DICTIONARY
  5
17
102
{ACAD_REACTORS
330
C
102
}
330
C
100
AcDbDictionary
281
     1
  3
Standard
350
18
  0
DICTIONARY
  5
19
102
{ACAD_REACTORS
330
C
102
}
330
C
100
AcDbDictionary
281
     1
  0
ACDBDICTIONARYWDFLT
  5
E
102
{ACAD_REACTORS
330
C
102
}
330
C
100
AcDbDictionary
281
     1
  3
Normal
350
F
100
AcDbDictionaryWithDefault
340
F
  0
DICTIONARY
  5
57
102
{ACAD_REACTORS
330
C
102
}
330
C
100
AcDbDictionary
281
     1
  3
A0
350
58
  3
A1
350
59
  3
A2
350
5A
  3
A3
350
5B
  3
A4
350
5C
  3
A5
350
5D
  3
A6
350
5E
  3
A7
350
5F
  3
A8
350
60
  3
A9
350
61
  3
B0
350
62
  3
B1
350
63
  3
B2
350
64
  3
B3
350
65
  3
B4
350
66
  3
B5
350
67
  3
B6
350
68
  3
B7
350
69
  3
B8
350
6A
  3
B9
350
6B
  3
C0
350
6C
  3
C1
350
6D
  3
C2
350
6E
  3
C3
350
6F
  3
C4
350
70
  3
C5
350
71
  3
C6
350
72
  3
C7
350
73
  3
C8
350
74
  3
C9
350
75
  3
D0
350
76
  3
D1
350
77
  3
D2
350
78
  0
DICTIONARY
  5
2A
102
{ACAD_REACTORS
330
C
102
}
330
C
100
AcDbDictionary
281
     1
  3
2dWireframe
350
2F
  3
3D Hidden
350
31
  3
3dWireframe
350
30
  3
Basic
350
32
  3
Brighten
350
36
  3
ColorChange
350
3A
  3
Conceptual
350
34
  3
Dim
350
35
  3
Facepattern
350
39
  3
Flat
350
2B
  3
FlatWithEdges
350
2C
  3
Gouraud
350
2D
  3
GouraudWithEdges
350
2E
  3
Linepattern
350
38
  3
Realistic
350
33
  3
Thicken
350
37
  0
DICTIONARY
  5
348
102
{ACAD_REACTORS
330
C
102
}
330
C
100
AcDbDictionary
281
     1
  3
CANNOSCALE
350
34B
  3
DIMASSOC
350
34C
  3
HIDETEXT
350
34D
  0
LAYOUT
  5
1E
102
{ACAD_REACTORS
330
1A
102
}
330
1A
100
AcDbPlotSettings
  1

  2
none_device
  4

  6

 40
0.0
 41
0.0
 42
0.0
 43
0.0
 44
0.0
 45
0.0
 46
0.0
 47
0.0
 48
0.0
 49
0.0
140
0.0
141
0.0
142
1.0
143
1.0
 70
   688
 72
     0
 73
     0
 74
     5
  7

 75
    16
147
1.0
148
0.0
149
0.0
100
AcDbLayout
  1
Layout1
 70
     1
 71
     1
 10
0.0
 20
0.0
 11
12.0
 21
9.0
 12
0.0
 22
0.0
 32
0.0
 14
1.00000000000000E+20
 24
1.00000000000000E+20
 34
1.00000000000000E+20
 15
-1.00000000000000E+20
 25
-1.00000000000000E+20
 35
-1.00000000000000E+20
146
0.0
 13
0.0
 23
0.0
 33
0.0
 16
1.0
 26
0.0
 36
0.0
 17
0.0
 27
1.0
 37
0.0
 76
     0
330
1B
  0
LAYOUT
  5
26
102
{ACAD_REACTORS
330
1A
102
}
330
1A
100
AcDbPlotSettings
  1

  2
none_device
  4

  6

 40
0.0
 41
0.0
 42
0.0
 43
0.0
 44
0.0
 45
0.0
 46
0.0
 47
0.0
 48
0.0
 49
0.0
140
0.0
141
0.0
142
1.0
143
1.0
 70
   688
 72
     0
 73
     0
 74
     5
  7

 75
    16
147
1.0
148
0.0
149
0.0
100
AcDbLayout
  1
Layout2
 70
     1
 71
     2
 10
0.0
 20
0.0
 11
0.0
 21
0.0
 12
0.0
 22
0.0
 32
0.0
 14
0.0
 24
0.0
 34
0.0
 15
0.0
 25
0.0
 35
0.0
146
0.0
 13
0.0
 23
0.0
 33
0.0
 16
1.0
 26
0.0
 36
0.0
 17
0.0
 27
1.0
 37
0.0
 76
     0
330
23
  0
LAYOUT
  5
22
102
{ACAD_REACTORS
330
1A
102
}
330
1A
100
AcDbPlotSettings
  1

  2
none_device
  4

  6

 40
0.0
 41
0.0
 42
0.0
 43
0.0
 44
0.0
 45
0.0
 46
0.0
 47
0.0
 48
0.0
 49
0.0
140
0.0
141
0.0
142
1.0
143
1.0
 70
  1712
 72
     0
 73
     0
 74
     0
  7

 75
     0
147
1.0
148
0.0
149
0.0
100
AcDbLayout
  1
Model
 70
     1
 71
     0
 10
0.0
 20
0.0
 11
12.0
 21
9.0
 12
0.0
 22
0.0
 32
0.0
 14
19.99999999999996
 24
19.9999999999999
 34
0.0
 15
574.0
 25
420.0
 35
0.0
146
0.0
 13
0.0
 23
0.0
 33
0.0
 16
1.0
 26
0.0
 36
0.0
 17
0.0
 27
1.0
 37
0.0
 76
     0
330
1F
331
29
  0
MATERIAL
  5
3D
102
{ACAD_REACTORS
330
3B
102
}
102
{ACAD_XDICTIONARY
360
370
102
}
330
3B
100
AcDbMaterial
  1
ByBlock
  0
MATERIAL
  5
3C
102
{ACAD_REACTORS
330
3B
102
}
102
{ACAD_XDICTIONARY
360
36E
102
}
330
3B
100
AcDbMaterial
  1
ByLayer
  0
MATERIAL
  5
3E
102
{ACAD_REACTORS
330
3B
102
}
102
{ACAD_XDICTIONARY
360
372
102
}
330
3B
100
AcDbMaterial
  1
Global
  0
MLINESTYLE
  5
18
102
{ACAD_REACTORS
330
17
102
}
330
17
100
AcDbMlineStyle
  2
Standard
 70
     0
  3

 62
   256
 51
90.0
 52
90.0
 71
     2
 49
0.5
 62
   256
  6
BYLAYER
 49
-0.5
 62
   256
  6
BYLAYER
  0
ACDBPLACEHOLDER
  5
F
102
{ACAD_REACTORS
330
E
102
}
330
E
  0
SCALE
  5
58
102
{ACAD_REACTORS
330
57
102
}
330
57
100
AcDbScale
 70
     0
300
1:1
140
1.0
141
1.0
290
     1
  0
SCALE
  5
59
102
{ACAD_REACTORS
330
57
102
}
330
57
100
AcDbScale
 70
     0
300
1:2
140
1.0
141
2.0
290
     0
  0
SCALE
  5
5A
102
{ACAD_REACTORS
330
57
102
}
330
57
100
AcDbScale
 70
     0
300
1:4
140
1.0
141
4.0
290
     0
  0
SCALE
  5
5B
102
{ACAD_REACTORS
330
57
102
}
330
57
100
AcDbScale
 70
     0
300
1:5
140
1.0
141
5.0
290
     0
  0
SCALE
  5
5C
102
{ACAD_REACTORS
330
57
102
}
330
57
100
AcDbScale
 70
     0
300
1:8
140
1.0
141
8.0
290
     0
  0
SCALE
  5
5D
102
{ACAD_REACTORS
330
57
102
}
330
57
100
AcDbScale
 70
     0
300
1:10
140
1.0
141
10.0
290
     0
  0
SCALE
  5
5E
102
{ACAD_REACTORS
330
57
102
}
330
57
100
AcDbScale
 70
     0
300
1:16
140
1.0
141
16.0
290
     0
  0
SCALE
  5
5F
102
{ACAD_REACTORS
330
57
102
}
330
57
100
AcDbScale
 70
     0
300
1:20
140
1.0
141
20.0
290
     0
  0
SCALE
  5
60
102
{ACAD_REACTORS
330
57
102
}
330
57
100
AcDbScale
 70
     0
300
1:30
140
1.0
141
30.0
290
     0
  0
SCALE
  5
61
102
{ACAD_REACTORS
330
57
102
}
330
57
100
AcDbScale
 70
     0
300
1:40
140
1.0
141
40.0
290
     0
  0
SCALE
  5
62
102
{ACAD_REACTORS
330
57
102
}
330
57
100
AcDbScale
 70
     0
300
1:50
140
1.0
141
50.0
290
     0
  0
SCALE
  5
63
102
{ACAD_REACTORS
330
57
102
}
330
57
100
AcDbScale
 70
     0
300
1:100
140
1.0
141
100.0
290
     0
  0
SCALE
  5
64
102
{ACAD_REACTORS
330
57
102
}
330
57
100
AcDbScale
 70
     0
300
2:1
140
2.0
141
1.0
290
     0
  0
SCALE
  5
65
102
{ACAD_REACTORS
330
57
102
}
330
57
100
AcDbScale
 70
     0
300
4:1
140
4.0
141
1.0
290
     0
  0
SCALE
  5
66
102
{ACAD_REACTORS
330
57
102
}
330
57
100
AcDbScale
 70
     0
300
8:1
140
8.0
141
1.0
290
     0
  0
SCALE
  5
67
102
{ACAD_REACTORS
330
57
102
}
330
57
100
AcDbScale
 70
     0
300
10:1
140
10.0
141
1.0
290
     0
  0
SCALE
  5
68
102
{ACAD_REACTORS
330
57
102
}
330
57
100
AcDbScale
 70
     0
300
100:1
140
100.0
141
1.0
290
     0
  0
SCALE
  5
69
102
{ACAD_REACTORS
330
57
102
}
330
57
100
AcDbScale
 70
     0
300
1/128" = 1'-0"
140
0.0078125
141
12.0
290
     0
  0
SCALE
  5
6A
102
{ACAD_REACTORS
330
57
102
}
330
57
100
AcDbScale
 70
     0
300
1/64" = 1'-0"
140
0.015625
141
12.0
290
     0
  0
SCALE
  5
6B
102
{ACAD_REACTORS
330
57
102
}
330
57
100
AcDbScale
 70
     0
300
1/32" = 1'-0"
140
0.03125
141
12.0
290
     0
  0
SCALE
  5
6C
102
{ACAD_REACTORS
330
57
102
}
330
57
100
AcDbScale
 70
     0
300
1/16" = 1'-0"
140
0.0625
141
12.0
290
     0
  0
SCALE
  5
6D
102
{ACAD_REACTORS
330
57
102
}
330
57
100
AcDbScale
 70
     0
300
3/32" = 1'-0"
140
0.09375
141
12.0
290
     0
  0
SCALE
  5
6E
102
{ACAD_REACTORS
330
57
102
}
330
57
100
AcDbScale
 70
     0
300
1/8" = 1'-0"
140
0.125
141
12.0
290
     0
  0
SCALE
  5
6F
102
{ACAD_REACTORS
330
57
102
}
330
57
100
AcDbScale
 70
     0
300
3/16" = 1'-0"
140
0.1875
141
12.0
290
     0
  0
SCALE
  5
70
102
{ACAD_REACTORS
330
57
102
}
330
57
100
AcDbScale
 70
     0
300
1/4" = 1'-0"
140
0.25
141
12.0
290
     0
  0
SCALE
  5
71
102
{ACAD_REACTORS
330
57
102
}
330
57
100
AcDbScale
 70
     0
300
3/8" = 1'-0"
140
0.375
141
12.0
290
     0
  0
SCALE
  5
72
102
{ACAD_REACTORS
330
57
102
}
330
57
100
AcDbScale
 70
     0
300
1/2" = 1'-0"
140
0.5
141
12.0
290
     0
  0
SCALE
  5
73
102
{ACAD_REACTORS
330
57
102
}
330
57
100
AcDbScale
 70
     0
300
3/4" = 1'-0"
140
0.75
141
12.0
290
     0
  0
SCALE
  5
74
102
{ACAD_REACTORS
330
57
102
}
330
57
100
AcDbScale
 70
     0
300
1" = 1'-0"
140
1.0
141
12.0
290
     0
  0
SCALE
  5
75
102
{ACAD_REACTORS
330
57
102
}
330
57
100
AcDbScale
 70
     0
300
1-1/2" = 1'-0"
140
1.5
141
12.0
290
     0
  0
SCALE
  5
76
102
{ACAD_REACTORS
330
57
102
}
330
57
100
AcDbScale
 70
     0
300
3" = 1'-0"
140
3.0
141
12.0
290
     0
  0
SCALE
  5
77
102
{ACAD_REACTORS
330
57
102
}
330
57
100
AcDbScale
 70
     0
300
6" = 1'-0"
140
6.0
141
12.0
290
     0
  0
SCALE
  5
78
102
{ACAD_REACTORS
330
57
102
}
330
57
100
AcDbScale
 70
     0
300
1'-0" = 1'-0"
140
12.0
141
12.0
290
     0
  0
VISUALSTYLE
  5
2F
102
{ACAD_REACTORS
330
2A
102
}
102
{ACAD_XDICTIONARY
360
356
102
}
330
2A
100
AcDbVisualStyle
  2
2dWireframe
 70
     4
 71
     0
 72
     2
 73
     0
 90
        0
 40
-0.6
 41
-30.0
 62
     5
 63
     7
 74
     1
 91
        4
 64
     7
 65
   257
 75
     1
175
     1
 42
1.0
 92
        0
 66
   257
 43
1.0
 76
     1
 77
     6
 78
     2
 67
     7
 79
     5
170
     0
171
     0
290
     0
174
     0
 93
        1
 44
0.0
173
     0
291
     0
 45
0.0
1001
ACAD
1000
AcDbSavedByObjectVersion
1070
     0
  0
VISUALSTYLE
  5
31
102
{ACAD_REACTORS
330
2A
102
}
102
{ACAD_XDICTIONARY
360
35A
102
}
330
2A
100
AcDbVisualStyle
  2
3D Hidden
 70
     6
 71
     1
 72
     2
 73
     2
 90
        0
 40
-0.6
 41
-30.0
 62
     5
 63
     7
 74
     2
 91
        2
 64
     7
 65
   257
 75
     2
175
     1
 42
40.0
 92
        0
 66
   257
 43
1.0
 76
     1
 77
     6
 78
     2
 67
     7
 79
     3
170
     0
171
     0
290
     0
174
     0
 93
        1
 44
0.0
173
     0
291
     0
 45
0.0
1001
ACAD
1000
AcDbSavedByObjectVersion
1070
     0
  0
VISUALSTYLE
  5
30
102
{ACAD_REACTORS
330
2A
102
}
102
{ACAD_XDICTIONARY
360
358
102
}
330
2A
100
AcDbVisualStyle
  2
3dWireframe
 70
     5
 71
     0
 72
     2
 73
     0
 90
        0
 40
-0.6
 41
-30.0
 62
     5
 63
     7
 74
     1
 91
        4
 64
     7
 65
   257
 75
     1
175
     1
 42
1.0
 92
        0
 66
   257
 43
1.0
 76
     1
 77
     6
 78
     2
 67
     7
 79
     5
170
     0
171
     0
290
     0
174
     0
 93
        1
 44
0.0
173
     0
291
     0
 45
0.0
1001
ACAD
1000
AcDbSavedByObjectVersion
1070
     0
  0
VISUALSTYLE
  5
32
102
{ACAD_REACTORS
330
2A
102
}
102
{ACAD_XDICTIONARY
360
35C
102
}
330
2A
100
AcDbVisualStyle
  2
Basic
 70
     7
 71
     1
 72
     0
 73
     1
 90
        0
 40
-0.6
 41
-30.0
 62
     5
 63
     7
 74
     0
 91
        4
 64
     7
 65
   257
 75
     1
175
     1
 42
1.0
 92
        8
 66
     7
 43
1.0
 76
     1
 77
     6
 78
     2
 67
     7
 79
     5
170
     0
171
     0
290
     0
174
     0
 93
        1
 44
0.0
173
     0
291
     1
 45
0.0
1001
ACAD
1000
AcDbSavedByObjectVersion
1070
     0
  0
VISUALSTYLE
  5
36
102
{ACAD_REACTORS
330
2A
102
}
102
{ACAD_XDICTIONARY
360
364
102
}
330
2A
100
AcDbVisualStyle
  2
Brighten
 70
    12
 71
     2
 72
     2
 73
     0
 90
        0
 40
-0.6
 41
-30.0
 62
     5
 63
     7
 74
     1
 91
        4
 64
     7
 65
   257
 75
     1
175
     1
 42
1.0
 92
        8
 66
     7
 43
1.0
 76
     1
 77
     6
 78
     2
 67
     7
 79
     5
170
     0
171
     0
290
     0
174
     0
 93
        1
 44
50.0
173
     0
291
     1
 45
0.0
1001
ACAD
1000
AcDbSavedByObjectVersion
1070
     0
  0
VISUALSTYLE
  5
3A
102
{ACAD_REACTORS
330
2A
102
}
102
{ACAD_XDICTIONARY
360
36C
102
}
330
2A
100
AcDbVisualStyle
  2
ColorChange
 70
    16
 71
     2
 72
     2
 73
     3
 90
        0
 40
-0.6
 41
-30.0
 62
     5
 63
     8
 74
     1
 91
        4
 64
     7
 65
   257
 75
     1
175
     1
 42
1.0
 92
        8
 66
     8
 43
1.0
 76
     1
 77
     6
 78
     2
 67
     7
 79
     5
170
     0
171
     0
290
     0
174
     0
 93
        1
 44
0.0
173
     0
291
     1
 45
0.0
1001
ACAD
1000
AcDbSavedByObjectVersion
1070
     0
  0
VISUALSTYLE
  5
34
102
{ACAD_REACTORS
330
2A
102
}
102
{ACAD_XDICTIONARY
360
360
102
}
330
2A
100
AcDbVisualStyle
  2
Conceptual
 70
     9
 71
     3
 72
     2
 73
     0
 90
        0
 40
-0.6
 41
-30.0
 62
     5
 63
     7
 74
     2
 91
        2
 64
     7
 65
   257
 75
     1
175
     1
 42
40.0
 92
        8
 66
     7
 43
1.0
 76
     1
 77
     6
 78
     2
 67
     7
 79
     3
170
     0
171
     0
290
     0
174
     0
 93
        1
 44
0.0
173
     0
291
     0
 45
0.0
1001
ACAD
1000
AcDbSavedByObjectVersion
1070
     0
  0
VISUALSTYLE
  5
35
102
{ACAD_REACTORS
330
2A
102
}
102
{ACAD_XDICTIONARY
360
362
102
}
330
2A
100
AcDbVisualStyle
  2
Dim
 70
    11
 71
     2
 72
     2
 73
     0
 90
        0
 40
-0.6
 41
-30.0
 62
     5
 63
     7
 74
     1
 91
        4
 64
     7
 65
   257
 75
     1
175
     1
 42
1.0
 92
        8
 66
     7
 43
1.0
 76
     1
 77
     6
 78
     2
 67
     7
 79
     5
170
     0
171
     0
290
     0
174
     0
 93
        1
 44
-50.0
173
     0
291
     1
 45
0.0
1001
ACAD
1000
AcDbSavedByObjectVersion
1070
     0
  0
VISUALSTYLE
  5
39
102
{ACAD_REACTORS
330
2A
102
}
102
{ACAD_XDICTIONARY
360
36A
102
}
330
2A
100
AcDbVisualStyle
  2
Facepattern
 70
    15
 71
     2
 72
     2
 73
     0
 90
        0
 40
-0.6
 41
-30.0
 62
     5
 63
     7
 74
     1
 91
        4
 64
     7
 65
   257
 75
     1
175
     1
 42
1.0
 92
        8
 66
     7
 43
1.0
 76
     1
 77
     6
 78
     2
 67
     7
 79
     5
170
     0
171
     0
290
     0
174
     0
 93
        1
 44
0.0
173
     0
291
     1
 45
0.0
1001
ACAD
1000
AcDbSavedByObjectVersion
1070
     0
  0
VISUALSTYLE
  5
2B
102
{ACAD_REACTORS
330
2A
102
}
102
{ACAD_XDICTIONARY
360
34E
102
}
330
2A
100
AcDbVisualStyle
  2
Flat
 70
     0
 71
     2
 72
     1
 73
     1
 90
        2
 40
-0.6
 41
30.0
 62
     5
 63
     7
 74
     0
 91
        4
 64
     7
 65
   257
 75
     1
175
     1
 42
1.0
 92
        8
 66
     7
 43
1.0
 76
     1
 77
     6
 78
     2
 67
     7
 79
     5
170
     0
171
     0
290
     0
174
     0
 93
       13
 44
0.0
173
     0
291
     1
 45
0.0
1001
ACAD
1000
AcDbSavedByObjectVersion
1070
     0
  0
VISUALSTYLE
  5
2C
102
{ACAD_REACTORS
330
2A
102
}
102
{ACAD_XDICTIONARY
360
350
102
}
330
2A
100
AcDbVisualStyle
  2
FlatWithEdges
 70
     1
 71
     2
 72
     1
 73
     1
 90
        2
 40
-0.6
 41
30.0
 62
     5
 63
     7
 74
     1
 91
        4
 64
     7
 65
   257
 75
     1
175
     1
 42
1.0
 92
        0
 66
   257
 43
1.0
 76
     1
 77
     6
 78
     2
 67
     7
 79
     5
170
     0
171
     0
290
     0
174
     0
 93
       13
 44
0.0
173
     0
291
     1
 45
0.0
1001
ACAD
1000
AcDbSavedByObjectVersion
1070
     0
  0
VISUALSTYLE
  5
2D
102
{ACAD_REACTORS
330
2A
102
}
102
{ACAD_XDICTIONARY
360
352
102
}
330
2A
100
AcDbVisualStyle
  2
Gouraud
 70
     2
 71
     2
 72
     2
 73
     1
 90
        2
 40
-0.6
 41
30.0
 62
     5
 63
     7
 74
     0
 91
        4
 64
     7
 65
   257
 75
     1
175
     1
 42
1.0
 92
        0
 66
     7
 43
1.0
 76
     1
 77
     6
 78
     2
 67
     7
 79
     5
170
     0
171
     0
290
     0
174
     0
 93
       13
 44
0.0
173
     0
291
     1
 45
0.0
1001
ACAD
1000
AcDbSavedByObjectVersion
1070
     0
  0
VISUALSTYLE
  5
2E
102
{ACAD_REACTORS
330
2A
102
}
102
{ACAD_XDICTIONARY
360
354
102
}
330
2A
100
AcDbVisualStyle
  2
GouraudWithEdges
 70
     3
 71
     2
 72
     2
 73
     1
 90
        2
 40
-0.6
 41
30.0
 62
     5
 63
     7
 74
     1
 91
        4
 64
     7
 65
   257
 75
     1
175
     1
 42
1.0
 92
        0
 66
   257
 43
1.0
 76
     1
 77
     6
 78
     2
 67
     7
 79
     5
170
     0
171
     0
290
     0
174
     0
 93
       13
 44
0.0
173
     0
291
     1
 45
0.0
1001
ACAD
1000
AcDbSavedByObjectVersion
1070
     0
  0
VISUALSTYLE
  5
38
102
{ACAD_REACTORS
330
2A
102
}
102
{ACAD_XDICTIONARY
360
368
102
}
330
2A
100
AcDbVisualStyle
  2
Linepattern
 70
    14
 71
     2
 72
     2
 73
     0
 90
        0
 40
-0.6
 41
-30.0
 62
     5
 63
     7
 74
     1
 91
        4
 64
     7
 65
   257
 75
     7
175
     7
 42
1.0
 92
        8
 66
     7
 43
1.0
 76
     1
 77
     6
 78
     2
 67
     7
 79
     5
170
     0
171
     0
290
     0
174
     0
 93
        1
 44
0.0
173
     0
291
     1
 45
0.0
1001
ACAD
1000
AcDbSavedByObjectVersion
1070
     0
  0
VISUALSTYLE
  5
33
102
{ACAD_REACTORS
330
2A
102
}
102
{ACAD_XDICTIONARY
360
35E
102
}
330
2A
100
AcDbVisualStyle
  2
Realistic
 70
     8
 71
     2
 72
     2
 73
     0
 90
        0
 40
-0.6
 41
-30.0
 62
     5
 63
     7
 74
     1
 91
        0
 64
     7
 65
   257
 75
     1
175
     1
 42
1.0
 92
        8
 66
     8
 43
1.0
 76
     1
 77
     6
 78
     2
 67
     7
 79
     5
170
     0
171
     0
290
     0
174
     0
 93
       13
 44
0.0
173
     0
291
     0
 45
0.0
1001
ACAD
1000
AcDbSavedByObjectVersion
1070
     0
  0
VISUALSTYLE
  5
37
102
{ACAD_REACTORS
330
2A
102
}
102
{ACAD_XDICTIONARY
360
366
102
}
330
2A
100
AcDbVisualStyle
  2
Thicken
 70
    13
 71
     2
 72
     2
 73
     0
 90
        0
 40
-0.6
 41
-30.0
 62
     5
 63
     7
 74
     1
 91
        4
 64
     7
 65
   257
 75
     1
175
     1
 42
1.0
 92
       12
 66
     7
 43
1.0
 76
     1
 77
     6
 78
     2
 67
     7
 79
     5
170
     0
171
     0
290
     0
174
     0
 93
        1
 44
0.0
173
     0
291
     1
 45
0.0
1001
ACAD
1000
AcDbSavedByObjectVersion
1070
     0
  0
DICTIONARYVAR
  5
34B
102
{ACAD_REACTORS
330
348
102
}
330
348
100
DictionaryVariables
280
     0
  1
1:1
  0
DICTIONARYVAR
  5
34C
102
{ACAD_REACTORS
330
348
102
}
330
348
100
DictionaryVariables
280
     0
  1
2
  0
DICTIONARYVAR
  5
34D
102
{ACAD_REACTORS
330
348
102
}
330
348
100
DictionaryVariables
280
     0
  1
1
  0
DICTIONARY
  5
370
330
3D
100
AcDbDictionary
280
     1
281
     1
  3
ACAD_XREC_ROUNDTRIP
360
371
  0
DICTIONARY
  5
36E
330
3C
100
AcDbDictionary
280
     1
281
     1
  3
ACAD_XREC_ROUNDTRIP
360
36F
  0
DICTIONARY
  5
372
330
3E
100
AcDbDictionary
280
     1
281
     1
  3
ACAD_XREC_ROUNDTRIP
360
373
  0
DICTIONARY
  5
356
330
2F
100
AcDbDictionary
280
     1
281
     1
  3
ACAD_XREC_ROUNDTRIP
360
357
  0
DICTIONARY
  5
35A
330
31
100
AcDbDictionary
280
     1
281
     1
  3
ACAD_XREC_ROUNDTRIP
360
35B
  0
DICTIONARY
  5
358
330
30
100
AcDbDictionary
280
     1
281
     1
  3
ACAD_XREC_ROUNDTRIP
360
359
  0
DICTIONARY
  5
35C
330
32
100
AcDbDictionary
280
     1
281
     1
  3
ACAD_XREC_ROUNDTRIP
360
35D
  0
DICTIONARY
  5
364
330
36
100
AcDbDictionary
280
     1
281
     1
  3
ACAD_XREC_ROUNDTRIP
360
365
  0
DICTIONARY
  5
36C
330
3A
100
AcDbDictionary
280
     1
281
     1
  3
ACAD_XREC_ROUNDTRIP
360
36D
  0
DICTIONARY
  5
360
330
34
100
AcDbDictionary
280
     1
281
     1
  3
ACAD_XREC_ROUNDTRIP
360
361
  0
DICTIONARY
  5
362
330
35
100
AcDbDictionary
280
     1
281
     1
  3
ACAD_XREC_ROUNDTRIP
360
363
  0
DICTIONARY
  5
36A
330
39
100
AcDbDictionary
280
     1
281
     1
  3
ACAD_XREC_ROUNDTRIP
360
36B
  0
DICTIONARY
  5
34E
330
2B
100
AcDbDictionary
280
     1
281
     1
  3
ACAD_XREC_ROUNDTRIP
360
34F
  0
DICTIONARY
  5
350
330
2C
100
AcDbDictionary
280
     1
281
     1
  3
ACAD_XREC_ROUNDTRIP
360
351
  0
DICTIONARY
  5
352
330
2D
100
AcDbDictionary
280
     1
281
     1
  3
ACAD_XREC_ROUNDTRIP
360
353
  0
DICTIONARY
  5
354
330
2E
100
AcDbDictionary
280
     1
281
     1
  3
ACAD_XREC_ROUNDTRIP
360
355
  0
DICTIONARY
  5
368
330
38
100
AcDbDictionary
280
     1
281
     1
  3
ACAD_XREC_ROUNDTRIP
360
369
  0
DICTIONARY
  5
35E
330
33
100
AcDbDictionary
280
     1
281
     1
  3
ACAD_XREC_ROUNDTRIP
360
35F
  0
DICTIONARY
  5
366
330
37
100
AcDbDictionary
280
     1
281
     1
  3
ACAD_XREC_ROUNDTRIP
360
367
  0
XRECORD
  5
371
102
{ACAD_REACTORS
330
370
102
}
330
370
100
AcDbXrecord
280
     1
102
MATERIAL
148
0.0
149
0.0
149
0.0
 93
        0
 94
      127
282
     0
 72
     1
 77
     1
171
     1
175
     1
179
     1
273
     0
  0
XRECORD
  5
36F
102
{ACAD_REACTORS
330
36E
102
}
330
36E
100
AcDbXrecord
280
     1
102
MATERIAL
148
0.0
149
0.0
149
0.0
 93
        0
 94
      127
282
     0
 72
     1
 77
     1
171
     1
175
     1
179
     1
273
     0
  0
XRECORD
  5
373
102
{ACAD_REACTORS
330
372
102
}
330
372
100
AcDbXrecord
280
     1
102
MATERIAL
148
0.0
149
0.0
149
0.0
 93
        0
 94
      127
282
     0
 72
     1
 77
     1
171
     1
175
     1
179
     1
273
     0
  0
XRECORD
  5
357
102
{ACAD_REACTORS
330
356
102
}
330
356
100
AcDbXrecord
280
     1
102
RTVSPropertyOp0
 70
     1
102
RTVSPropertyOp1
 70
     1
102
RTVSPropertyOp2
 70
     1
102
RTVSPropertyOp3
 70
     1
102
RTVSPropertyOp4
 70
     1
102
RTVSPropertyOp5
 70
     1
102
RTVSPropertyOp6
 70
     1
102
RTVSPropertyOp7
 70
     1
102
RTVSPropertyOp8
 70
     1
102
RTVSPropertyOp9
 70
     1
102
RTVSPropertyOp10
 70
     1
102
RTVSPropertyOp11
 70
     1
102
RTVSPropertyOp12
 70
     1
102
RTVSPropertyOp13
 70
     1
102
RTVSPropertyOp14
 70
     1
102
RTVSPropertyOp15
 70
     1
102
RTVSPropertyOp16
 70
     1
102
RTVSPropertyOp17
 70
     1
102
RTVSPropertyOp18
 70
     1
102
RTVSPropertyOp19
 70
     1
102
RTVSPropertyOp20
 70
     1
102
RTVSPropertyOp21
 70
     1
102
RTVSPropertyOp22
 70
     1
102
RTVSPropertyOp23
 70
     1
102
RTVSPropertyOp24
 70
     1
102
RTVSPropertyOp25
 70
     1
102
RTVSPropertyOp26
 70
     1
102
RTVSPropertyOp27
 70
     1
  0
XRECORD
  5
35B
102
{ACAD_REACTORS
330
35A
102
}
330
35A
100
AcDbXrecord
280
     1
102
RTVSPropertyOp0
 70
     1
102
RTVSPropertyOp1
 70
     1
102
RTVSPropertyOp2
 70
     1
102
RTVSPropertyOp3
 70
     1
102
RTVSPropertyOp4
 70
     1
102
RTVSPropertyOp5
 70
     1
102
RTVSPropertyOp6
 70
     1
102
RTVSPropertyOp7
 70
     1
102
RTVSPropertyOp8
 70
     1
102
RTVSPropertyOp9
 70
     1
102
RTVSPropertyOp10
 70
     1
102
RTVSPropertyOp11
 70
     1
102
RTVSPropertyOp12
 70
     1
102
RTVSPropertyOp13
 70
     1
102
RTVSPropertyOp14
 70
     1
102
RTVSPropertyOp15
 70
     1
102
RTVSPropertyOp16
 70
     1
102
RTVSPropertyOp17
 70
     1
102
RTVSPropertyOp18
 70
     1
102
RTVSPropertyOp19
 70
     1
102
RTVSPropertyOp20
 70
     1
102
RTVSPropertyOp21
 70
     1
102
RTVSPropertyOp22
 70
     1
102
RTVSPropertyOp23
 70
     1
102
RTVSPropertyOp24
 70
     1
102
RTVSPropertyOp25
 70
     1
102
RTVSPropertyOp26
 70
     1
102
RTVSPropertyOp27
 70
     1
  0
XRECORD
  5
359
102
{ACAD_REACTORS
330
358
102
}
330
358
100
AcDbXrecord
280
     1
102
RTVSPropertyOp0
 70
     1
102
RTVSPropertyOp1
 70
     1
102
RTVSPropertyOp2
 70
     1
102
RTVSPropertyOp3
 70
     1
102
RTVSPropertyOp4
 70
     1
102
RTVSPropertyOp5
 70
     1
102
RTVSPropertyOp6
 70
     1
102
RTVSPropertyOp7
 70
     1
102
RTVSPropertyOp8
 70
     1
102
RTVSPropertyOp9
 70
     1
102
RTVSPropertyOp10
 70
     1
102
RTVSPropertyOp11
 70
     1
102
RTVSPropertyOp12
 70
     1
102
RTVSPropertyOp13
 70
     1
102
RTVSPropertyOp14
 70
     1
102
RTVSPropertyOp15
 70
     1
102
RTVSPropertyOp16
 70
     1
102
RTVSPropertyOp17
 70
     1
102
RTVSPropertyOp18
 70
     1
102
RTVSPropertyOp19
 70
     1
102
RTVSPropertyOp20
 70
     1
102
RTVSPropertyOp21
 70
     1
102
RTVSPropertyOp22
 70
     1
102
RTVSPropertyOp23
 70
     1
102
RTVSPropertyOp24
 70
     1
102
RTVSPropertyOp25
 70
     1
102
RTVSPropertyOp26
 70
     1
102
RTVSPropertyOp27
 70
     1
  0
XRECORD
  5
35D
102
{ACAD_REACTORS
330
35C
102
}
330
35C
100
AcDbXrecord
280
     1
102
RTVSPropertyOp0
 70
     1
102
RTVSPropertyOp1
 70
     1
102
RTVSPropertyOp2
 70
     1
102
RTVSPropertyOp3
 70
     1
102
RTVSPropertyOp4
 70
     1
102
RTVSPropertyOp5
 70
     1
102
RTVSPropertyOp6
 70
     1
102
RTVSPropertyOp7
 70
     1
102
RTVSPropertyOp8
 70
     1
102
RTVSPropertyOp9
 70
     1
102
RTVSPropertyOp10
 70
     1
102
RTVSPropertyOp11
 70
     1
102
RTVSPropertyOp12
 70
     1
102
RTVSPropertyOp13
 70
     1
102
RTVSPropertyOp14
 70
     1
102
RTVSPropertyOp15
 70
     1
102
RTVSPropertyOp16
 70
     1
102
RTVSPropertyOp17
 70
     1
102
RTVSPropertyOp18
 70
     1
102
RTVSPropertyOp19
 70
     1
102
RTVSPropertyOp20
 70
     1
102
RTVSPropertyOp21
 70
     1
102
RTVSPropertyOp22
 70
     1
102
RTVSPropertyOp23
 70
     1
102
RTVSPropertyOp24
 70
     1
102
RTVSPropertyOp25
 70
     1
102
RTVSPropertyOp26
 70
     1
102
RTVSPropertyOp27
 70
     1
  0
XRECORD
  5
365
102
{ACAD_REACTORS
330
364
102
}
330
364
100
AcDbXrecord
280
     1
102
RTVSPropertyOp0
 70
     1
102
RTVSPropertyOp1
 70
     1
102
RTVSPropertyOp2
 70
     1
102
RTVSPropertyOp3
 70
     1
102
RTVSPropertyOp4
 70
     1
102
RTVSPropertyOp5
 70
     1
102
RTVSPropertyOp6
 70
     1
102
RTVSPropertyOp7
 70
     1
102
RTVSPropertyOp8
 70
     1
102
RTVSPropertyOp9
 70
     1
102
RTVSPropertyOp10
 70
     1
102
RTVSPropertyOp11
 70
     1
102
RTVSPropertyOp12
 70
     1
102
RTVSPropertyOp13
 70
     1
102
RTVSPropertyOp14
 70
     1
102
RTVSPropertyOp15
 70
     1
102
RTVSPropertyOp16
 70
     1
102
RTVSPropertyOp17
 70
     1
102
RTVSPropertyOp18
 70
     1
102
RTVSPropertyOp19
 70
     1
102
RTVSPropertyOp20
 70
     1
102
RTVSPropertyOp21
 70
     1
102
RTVSPropertyOp22
 70
     1
102
RTVSPropertyOp23
 70
     1
102
RTVSPropertyOp24
 70
     1
102
RTVSPropertyOp25
 70
     1
102
RTVSPropertyOp26
 70
     1
102
RTVSPropertyOp27
 70
     1
  0
XRECORD
  5
36D
102
{ACAD_REACTORS
330
36C
102
}
330
36C
100
AcDbXrecord
280
     1
102
RTVSPropertyOp0
 70
     1
102
RTVSPropertyOp1
 70
     1
102
RTVSPropertyOp2
 70
     1
102
RTVSPropertyOp3
 70
     1
102
RTVSPropertyOp4
 70
     1
102
RTVSPropertyOp5
 70
     1
102
RTVSPropertyOp6
 70
     1
102
RTVSPropertyOp7
 70
     1
102
RTVSPropertyOp8
 70
     1
102
RTVSPropertyOp9
 70
     1
102
RTVSPropertyOp10
 70
     1
102
RTVSPropertyOp11
 70
     1
102
RTVSPropertyOp12
 70
     1
102
RTVSPropertyOp13
 70
     1
102
RTVSPropertyOp14
 70
     1
102
RTVSPropertyOp15
 70
     1
102
RTVSPropertyOp16
 70
     1
102
RTVSPropertyOp17
 70
     1
102
RTVSPropertyOp18
 70
     1
102
RTVSPropertyOp19
 70
     1
102
RTVSPropertyOp20
 70
     1
102
RTVSPropertyOp21
 70
     1
102
RTVSPropertyOp22
 70
     1
102
RTVSPropertyOp23
 70
     1
102
RTVSPropertyOp24
 70
     1
102
RTVSPropertyOp25
 70
     1
102
RTVSPropertyOp26
 70
     1
102
RTVSPropertyOp27
 70
     1
  0
XRECORD
  5
361
102
{ACAD_REACTORS
330
360
102
}
330
360
100
AcDbXrecord
280
     1
102
RTVSPropertyOp0
 70
     1
102
RTVSPropertyOp1
 70
     1
102
RTVSPropertyOp2
 70
     1
102
RTVSPropertyOp3
 70
     1
102
RTVSPropertyOp4
 70
     1
102
RTVSPropertyOp5
 70
     1
102
RTVSPropertyOp6
 70
     1
102
RTVSPropertyOp7
 70
     1
102
RTVSPropertyOp8
 70
     1
102
RTVSPropertyOp9
 70
     1
102
RTVSPropertyOp10
 70
     1
102
RTVSPropertyOp11
 70
     1
102
RTVSPropertyOp12
 70
     1
102
RTVSPropertyOp13
 70
     1
102
RTVSPropertyOp14
 70
     1
102
RTVSPropertyOp15
 70
     1
102
RTVSPropertyOp16
 70
     1
102
RTVSPropertyOp17
 70
     1
102
RTVSPropertyOp18
 70
     1
102
RTVSPropertyOp19
 70
     1
102
RTVSPropertyOp20
 70
     1
102
RTVSPropertyOp21
 70
     1
102
RTVSPropertyOp22
 70
     1
102
RTVSPropertyOp23
 70
     1
102
RTVSPropertyOp24
 70
     1
102
RTVSPropertyOp25
 70
     1
102
RTVSPropertyOp26
 70
     1
102
RTVSPropertyOp27
 70
     1
  0
XRECORD
  5
363
102
{ACAD_REACTORS
330
362
102
}
330
362
100
AcDbXrecord
280
     1
102
RTVSPropertyOp0
 70
     1
102
RTVSPropertyOp1
 70
     1
102
RTVSPropertyOp2
 70
     1
102
RTVSPropertyOp3
 70
     1
102
RTVSPropertyOp4
 70
     1
102
RTVSPropertyOp5
 70
     1
102
RTVSPropertyOp6
 70
     1
102
RTVSPropertyOp7
 70
     1
102
RTVSPropertyOp8
 70
     1
102
RTVSPropertyOp9
 70
     1
102
RTVSPropertyOp10
 70
     1
102
RTVSPropertyOp11
 70
     1
102
RTVSPropertyOp12
 70
     1
102
RTVSPropertyOp13
 70
     1
102
RTVSPropertyOp14
 70
     1
102
RTVSPropertyOp15
 70
     1
102
RTVSPropertyOp16
 70
     1
102
RTVSPropertyOp17
 70
     1
102
RTVSPropertyOp18
 70
     1
102
RTVSPropertyOp19
 70
     1
102
RTVSPropertyOp20
 70
     1
102
RTVSPropertyOp21
 70
     1
102
RTVSPropertyOp22
 70
     1
102
RTVSPropertyOp23
 70
     1
102
RTVSPropertyOp24
 70
     1
102
RTVSPropertyOp25
 70
     1
102
RTVSPropertyOp26
 70
     1
102
RTVSPropertyOp27
 70
     1
  0
XRECORD
  5
36B
102
{ACAD_REACTORS
330
36A
102
}
330
36A
100
AcDbXrecord
280
     1
102
RTVSPropertyOp0
 70
     1
102
RTVSPropertyOp1
 70
     1
102
RTVSPropertyOp2
 70
     1
102
RTVSPropertyOp3
 70
     1
102
RTVSPropertyOp4
 70
     1
102
RTVSPropertyOp5
 70
     1
102
RTVSPropertyOp6
 70
     1
102
RTVSPropertyOp7
 70
     1
102
RTVSPropertyOp8
 70
     1
102
RTVSPropertyOp9
 70
     1
102
RTVSPropertyOp10
 70
     1
102
RTVSPropertyOp11
 70
     1
102
RTVSPropertyOp12
 70
     1
102
RTVSPropertyOp13
 70
     1
102
RTVSPropertyOp14
 70
     1
102
RTVSPropertyOp15
 70
     1
102
RTVSPropertyOp16
 70
     1
102
RTVSPropertyOp17
 70
     1
102
RTVSPropertyOp18
 70
     1
102
RTVSPropertyOp19
 70
     1
102
RTVSPropertyOp20
 70
     1
102
RTVSPropertyOp21
 70
     1
102
RTVSPropertyOp22
 70
     1
102
RTVSPropertyOp23
 70
     1
102
RTVSPropertyOp24
 70
     1
102
RTVSPropertyOp25
 70
     1
102
RTVSPropertyOp26
 70
     1
102
RTVSPropertyOp27
 70
     1
  0
XRECORD
  5
34F
102
{ACAD_REACTORS
330
34E
102
}
330
34E
100
AcDbXrecord
280
     1
102
RTVSPropertyOp0
 70
     1
102
RTVSPropertyOp1
 70
     1
102
RTVSPropertyOp2
 70
     1
102
RTVSPropertyOp3
 70
     1
102
RTVSPropertyOp4
 70
     1
102
RTVSPropertyOp5
 70
     1
102
RTVSPropertyOp6
 70
     1
102
RTVSPropertyOp7
 70
     1
102
RTVSPropertyOp8
 70
     1
102
RTVSPropertyOp9
 70
     1
102
RTVSPropertyOp10
 70
     1
102
RTVSPropertyOp11
 70
     1
102
RTVSPropertyOp12
 70
     1
102
RTVSPropertyOp13
 70
     1
102
RTVSPropertyOp14
 70
     1
102
RTVSPropertyOp15
 70
     1
102
RTVSPropertyOp16
 70
     1
102
RTVSPropertyOp17
 70
     1
102
RTVSPropertyOp18
 70
     1
102
RTVSPropertyOp19
 70
     1
102
RTVSPropertyOp20
 70
     1
102
RTVSPropertyOp21
 70
     1
102
RTVSPropertyOp22
 70
     1
102
RTVSPropertyOp23
 70
     1
102
RTVSPropertyOp24
 70
     1
102
RTVSPropertyOp25
 70
     1
102
RTVSPropertyOp26
 70
     1
102
RTVSPropertyOp27
 70
     1
  0
XRECORD
  5
351
102
{ACAD_REACTORS
330
350
102
}
330
350
100
AcDbXrecord
280
     1
102
RTVSPropertyOp0
 70
     1
102
RTVSPropertyOp1
 70
     1
102
RTVSPropertyOp2
 70
     1
102
RTVSPropertyOp3
 70
     1
102
RTVSPropertyOp4
 70
     1
102
RTVSPropertyOp5
 70
     1
102
RTVSPropertyOp6
 70
     1
102
RTVSPropertyOp7
 70
     1
102
RTVSPropertyOp8
 70
     1
102
RTVSPropertyOp9
 70
     1
102
RTVSPropertyOp10
 70
     1
102
RTVSPropertyOp11
 70
     1
102
RTVSPropertyOp12
 70
     1
102
RTVSPropertyOp13
 70
     1
102
RTVSPropertyOp14
 70
     1
102
RTVSPropertyOp15
 70
     1
102
RTVSPropertyOp16
 70
     1
102
RTVSPropertyOp17
 70
     1
102
RTVSPropertyOp18
 70
     1
102
RTVSPropertyOp19
 70
     1
102
RTVSPropertyOp20
 70
     1
102
RTVSPropertyOp21
 70
     1
102
RTVSPropertyOp22
 70
     1
102
RTVSPropertyOp23
 70
     1
102
RTVSPropertyOp24
 70
     1
102
RTVSPropertyOp25
 70
     1
102
RTVSPropertyOp26
 70
     1
102
RTVSPropertyOp27
 70
     1
  0
XRECORD
  5
353
102
{ACAD_REACTORS
330
352
102
}
330
352
100
AcDbXrecord
280
     1
102
RTVSPropertyOp0
 70
     1
102
RTVSPropertyOp1
 70
     1
102
RTVSPropertyOp2
 70
     1
102
RTVSPropertyOp3
 70
     1
102
RTVSPropertyOp4
 70
     1
102
RTVSPropertyOp5
 70
     1
102
RTVSPropertyOp6
 70
     1
102
RTVSPropertyOp7
 70
     1
102
RTVSPropertyOp8
 70
     1
102
RTVSPropertyOp9
 70
     1
102
RTVSPropertyOp10
 70
     1
102
RTVSPropertyOp11
 70
     1
102
RTVSPropertyOp12
 70
     1
102
RTVSPropertyOp13
 70
     1
102
RTVSPropertyOp14
 70
     1
102
RTVSPropertyOp15
 70
     1
102
RTVSPropertyOp16
 70
     1
102
RTVSPropertyOp17
 70
     1
102
RTVSPropertyOp18
 70
     1
102
RTVSPropertyOp19
 70
     1
102
RTVSPropertyOp20
 70
     1
102
RTVSPropertyOp21
 70
     1
102
RTVSPropertyOp22
 70
     1
102
RTVSPropertyOp23
 70
     1
102
RTVSPropertyOp24
 70
     1
102
RTVSPropertyOp25
 70
     1
102
RTVSPropertyOp26
 70
     1
102
RTVSPropertyOp27
 70
     1
  0
XRECORD
  5
355
102
{ACAD_REACTORS
330
354
102
}
330
354
100
AcDbXrecord
280
     1
102
RTVSPropertyOp0
 70
     1
102
RTVSPropertyOp1
 70
     1
102
RTVSPropertyOp2
 70
     1
102
RTVSPropertyOp3
 70
     1
102
RTVSPropertyOp4
 70
     1
102
RTVSPropertyOp5
 70
     1
102
RTVSPropertyOp6
 70
     1
102
RTVSPropertyOp7
 70
     1
102
RTVSPropertyOp8
 70
     1
102
RTVSPropertyOp9
 70
     1
102
RTVSPropertyOp10
 70
     1
102
RTVSPropertyOp11
 70
     1
102
RTVSPropertyOp12
 70
     1
102
RTVSPropertyOp13
 70
     1
102
RTVSPropertyOp14
 70
     1
102
RTVSPropertyOp15
 70
     1
102
RTVSPropertyOp16
 70
     1
102
RTVSPropertyOp17
 70
     1
102
RTVSPropertyOp18
 70
     1
102
RTVSPropertyOp19
 70
     1
102
RTVSPropertyOp20
 70
     1
102
RTVSPropertyOp21
 70
     1
102
RTVSPropertyOp22
 70
     1
102
RTVSPropertyOp23
 70
     1
102
RTVSPropertyOp24
 70
     1
102
RTVSPropertyOp25
 70
     1
102
RTVSPropertyOp26
 70
     1
102
RTVSPropertyOp27
 70
     1
  0
XRECORD
  5
369
102
{ACAD_REACTORS
330
368
102
}
330
368
100
AcDbXrecord
280
     1
102
RTVSPropertyOp0
 70
     1
102
RTVSPropertyOp1
 70
     1
102
RTVSPropertyOp2
 70
     1
102
RTVSPropertyOp3
 70
     1
102
RTVSPropertyOp4
 70
     1
102
RTVSPropertyOp5
 70
     1
102
RTVSPropertyOp6
 70
     1
102
RTVSPropertyOp7
 70
     1
102
RTVSPropertyOp8
 70
     1
102
RTVSPropertyOp9
 70
     1
102
RTVSPropertyOp10
 70
     1
102
RTVSPropertyOp11
 70
     1
102
RTVSPropertyOp12
 70
     1
102
RTVSPropertyOp13
 70
     1
102
RTVSPropertyOp14
 70
     1
102
RTVSPropertyOp15
 70
     1
102
RTVSPropertyOp16
 70
     1
102
RTVSPropertyOp17
 70
     1
102
RTVSPropertyOp18
 70
     1
102
RTVSPropertyOp19
 70
     1
102
RTVSPropertyOp20
 70
     1
102
RTVSPropertyOp21
 70
     1
102
RTVSPropertyOp22
 70
     1
102
RTVSPropertyOp23
 70
     1
102
RTVSPropertyOp24
 70
     1
102
RTVSPropertyOp25
 70
     1
102
RTVSPropertyOp26
 70
     1
102
RTVSPropertyOp27
 70
     1
  0
XRECORD
  5
35F
102
{ACAD_REACTORS
330
35E
102
}
330
35E
100
AcDbXrecord
280
     1
102
RTVSPropertyOp0
 70
     1
102
RTVSPropertyOp1
 70
     1
102
RTVSPropertyOp2
 70
     1
102
RTVSPropertyOp3
 70
     1
102
RTVSPropertyOp4
 70
     1
102
RTVSPropertyOp5
 70
     1
102
RTVSPropertyOp6
 70
     1
102
RTVSPropertyOp7
 70
     1
102
RTVSPropertyOp8
 70
     1
102
RTVSPropertyOp9
 70
     1
102
RTVSPropertyOp10
 70
     1
102
RTVSPropertyOp11
 70
     1
102
RTVSPropertyOp12
 70
     1
102
RTVSPropertyOp13
 70
     1
102
RTVSPropertyOp14
 70
     1
102
RTVSPropertyOp15
 70
     1
102
RTVSPropertyOp16
 70
     1
102
RTVSPropertyOp17
 70
     1
102
RTVSPropertyOp18
 70
     1
102
RTVSPropertyOp19
 70
     1
102
RTVSPropertyOp20
 70
     1
102
RTVSPropertyOp21
 70
     1
102
RTVSPropertyOp22
 70
     1
102
RTVSPropertyOp23
 70
     1
102
RTVSPropertyOp24
 70
     1
102
RTVSPropertyOp25
 70
     1
102
RTVSPropertyOp26
 70
     1
102
RTVSPropertyOp27
 70
     1
  0
XRECORD
  5
367
102
{ACAD_REACTORS
330
366
102
}
330
366
100
AcDbXrecord
280
     1
102
RTVSPropertyOp0
 70
     1
102
RTVSPropertyOp1
 70
     1
102
RTVSPropertyOp2
 70
     1
102
RTVSPropertyOp3
 70
     1
102
RTVSPropertyOp4
 70
     1
102
RTVSPropertyOp5
 70
     1
102
RTVSPropertyOp6
 70
     1
102
RTVSPropertyOp7
 70
     1
102
RTVSPropertyOp8
 70
     1
102
RTVSPropertyOp9
 70
     1
102
RTVSPropertyOp10
 70
     1
102
RTVSPropertyOp11
 70
     1
102
RTVSPropertyOp12
 70
     1
102
RTVSPropertyOp13
 70
     1
102
RTVSPropertyOp14
 70
     1
102
RTVSPropertyOp15
 70
     1
102
RTVSPropertyOp16
 70
     1
102
RTVSPropertyOp17
 70
     1
102
RTVSPropertyOp18
 70
     1
102
RTVSPropertyOp19
 70
     1
102
RTVSPropertyOp20
 70
     1
102
RTVSPropertyOp21
 70
     1
102
RTVSPropertyOp22
 70
     1
102
RTVSPropertyOp23
 70
     1
102
RTVSPropertyOp24
 70
     1
102
RTVSPropertyOp25
 70
     1
102
RTVSPropertyOp26
 70
     1
102
RTVSPropertyOp27
 70
     1
  0
ENDSEC
  0
EOF
